<?xml version="1.0" encoding="UTF-8"?>
<svg xmlns="http://www.w3.org/2000/svg" xmlns:xlink="http://www.w3.org/1999/xlink" version="1.2" >
<font id="Maxwell Sans Italic">
<font-face  font-family="Maxwell Sans" units-per-em="1000" ascent="750" descent="-250" font-style="normal" font-weight="400" font-stretch="normal" cap-height="676" x-height="486" underline-position="-75" underline-thickness="50" />
<missing-glyph  horiz-adv-x="173" d="" />
<glyph glyph-name="space" unicode="&#x20;" horiz-adv-x="173" d="" />
<glyph glyph-name="exclam" unicode="&#x21;" horiz-adv-x="162" d="M48 0 L112 0 L121 59 L58 59 L48 0 L48 0 Z M76 157 L139 157 L254 816 L191 816 L76 157 L76 157 Z " />
<glyph glyph-name="quotedbl" unicode="&#x22;" horiz-adv-x="221" d="M248 720 L290 720 L312 809 L258 809 L248 720 L248 720 Z M180 720 L222 720 L242 809 L190 809 L180 720 L180 720 Z " />
<glyph glyph-name="numbersign" unicode="&#x23;" horiz-adv-x="598" d="M616 805 L552 805 L514 589 L306 589 L344 805 L281 805 L242 589 L139 589 L128 526 L232 526 L193 311 L90 311 L79 248 L182 248 L139 0 L203 0 L246 248 L454 248 L410 0 L474 0 L517 248 L601 248 L612 311 L528 311 L566 526 L650 526 L661 589 L577 589 L616 805 L616 805 Z M464 311 L257 311 L295 526 L503 526 L464 311 L464 311 Z " />
<glyph glyph-name="dollar" unicode="&#x24;" horiz-adv-x="438" d="M318 396 L371 700 C410 686 434 646 426 599 L490 599 C504 680 458 749 383 764 L400 858 L336 858 L319 764 C239 750 169 686 155 608 C133 497 192 427 248 367 L194 58 C155 71 132 110 140 157 L77 157 C62 76 109 7 182 -7 L167 -97 L230 -97 L246 -8 C281 -4 312 8 338 29 C376 58 401 100 412 150 C433 265 374 335 318 396 L318 396 Z M218 608 C226 652 263 688 307 700 L264 454 C229 498 205 542 218 608 L218 608 Z M348 151 C335 86 294 62 258 55 L302 310 C337 265 362 218 348 151 L348 151 Z " />
<glyph glyph-name="percent" unicode="&#x25;" horiz-adv-x="864" d="M433 528 L450 624 C467 715 414 790 332 790 C252 790 173 715 156 624 L139 528 C124 437 176 361 257 361 C338 361 418 437 433 528 L433 528 Z M370 528 C360 472 313 425 268 425 C223 425 193 472 203 528 L220 624 C229 679 276 727 320 727 C366 727 396 679 386 624 L370 528 L370 528 Z M745 443 C665 443 586 368 569 276 L552 181 C536 89 589 14 670 14 C751 14 830 89 846 181 L863 276 C880 368 827 443 745 443 L745 443 Z M782 181 C773 125 726 77 680 77 C635 77 605 125 614 181 L631 276 C641 332 688 379 733 379 C779 379 809 332 799 276 L782 181 L782 181 Z M683 805 L257 0 L336 0 L762 805 L683 805 L683 805 Z " />
<glyph glyph-name="ampersand" unicode="&#x26;" horiz-adv-x="551" d="M470 164 C500 239 533 356 550 450 L487 450 C475 382 452 295 430 228 C392 318 359 408 335 485 C358 510 378 530 395 545 C406 556 413 564 418 569 C490 648 488 708 480 737 C470 775 440 803 402 808 C372 812 340 802 310 780 C272 751 244 706 236 661 C233 646 227 611 263 492 C187 409 100 296 82 197 C61 76 133 11 215 1 C281 -6 360 20 416 82 C454 -2 480 -62 481 -64 L540 -30 C516 23 490 84 462 148 C466 152 468 158 470 164 L470 164 Z M343 732 C352 738 364 745 377 745 C379 745 380 745 383 745 C400 743 414 730 418 712 C425 683 409 646 374 606 C370 602 362 594 354 586 C343 575 330 563 316 548 C301 599 295 638 300 661 C305 688 322 715 343 732 L343 732 Z M233 65 C180 71 130 108 145 197 C158 270 221 356 282 427 C299 378 322 317 350 242 C365 208 378 174 391 142 C350 82 284 59 233 65 L233 65 Z " />
<glyph glyph-name="quotesingle" unicode="&#x27;" horiz-adv-x="144" d="M178 720 L220 720 L240 809 L187 809 L178 720 L178 720 Z " />
<glyph glyph-name="parenleft" unicode="&#x28;" horiz-adv-x="292" d="M296 864 C116 575 56 233 134 -56 C166 -56 181 -56 212 -56 C136 233 196 575 374 864 C343 864 328 864 296 864 L296 864 Z " />
<glyph glyph-name="parenright" unicode="&#x29;" horiz-adv-x="265" d="M199 864 C277 575 217 233 37 -56 C68 -56 84 -56 116 -56 C296 233 356 575 278 864 C246 864 230 864 199 864 L199 864 Z " />
<glyph glyph-name="asterisk" unicode="&#x2a;" horiz-adv-x="330" d="M380 780 L325 751 L335 809 L272 809 L263 751 L216 781 L175 726 L222 697 L167 668 L188 613 L244 642 L233 584 L295 584 L306 642 L350 614 L391 668 L348 697 L402 726 L380 780 L380 780 Z " />
<glyph glyph-name="plus" unicode="&#x2b;" horiz-adv-x="396" d="M313 496 L251 496 L228 365 L97 365 L86 302 L217 302 L194 172 L257 172 L280 302 L410 302 L421 365 L290 365 L313 496 L313 496 Z " />
<glyph glyph-name="comma" unicode="&#x2c;" horiz-adv-x="156" d="M115 54 L56 54 L47 -1 L73 -1 L73 -1 C70 -26 52 -24 52 -24 L48 -46 C100 -46 106 -1 106 -1 L115 54 L115 54 Z " />
<glyph glyph-name="hyphen" unicode="&#x2d;" horiz-adv-x="380" d="M97 371 L402 371 L413 433 L108 433 L97 371 L97 371 Z " />
<glyph glyph-name="period" unicode="&#x2e;" horiz-adv-x="142" d="M36 -1 L95 -1 L106 58 L47 58 L36 -1 L36 -1 Z " />
<glyph glyph-name="slash" unicode="&#x2f;" horiz-adv-x="446" d="M48 0 L127 0 L552 805 L474 805 L48 0 L48 0 Z " />
<glyph glyph-name="zero" unicode="0" horiz-adv-x="508" d="M425 808 L368 808 C276 808 188 733 173 642 L89 168 C73 77 134 2 227 2 L283 2 C374 2 462 77 478 168 L562 642 C577 733 516 808 425 808 L425 808 Z M415 168 C406 112 350 65 294 65 L238 65 C180 65 143 112 152 168 L236 642 C246 698 300 745 358 745 L414 745 C470 745 509 698 499 642 L415 168 Z " />
<glyph glyph-name="one" unicode="1" horiz-adv-x="281" d="M277 809 L188 731 L226 686 L264 721 L138 0 L200 0 L338 786 L342 808 L280 808 L277 809 L277 809 Z " />
<glyph glyph-name="two" unicode="2" horiz-adv-x="456" d="M505 616 C523 724 462 808 366 808 C271 808 179 716 158 602 L222 602 C236 682 295 745 355 745 C415 745 455 688 442 614 C421 496 344 425 263 349 C174 266 82 179 58 31 L54 0 L396 0 L407 62 L127 62 C154 168 226 236 301 306 C390 388 481 472 505 616 L505 616 Z " />
<glyph glyph-name="three" unicode="3" horiz-adv-x="456" d="M310 572 L532 808 L191 808 L180 745 L392 745 L175 516 L239 516 C294 516 335 498 359 463 C386 422 392 362 378 282 C353 138 284 64 230 64 C170 64 133 127 148 206 L84 206 C64 92 125 0 220 0 C270 0 319 29 359 82 C398 132 427 202 442 282 C458 378 449 452 414 504 C390 539 354 563 310 572 L310 572 Z " />
<glyph glyph-name="four" unicode="4" horiz-adv-x="517" d="M509 809 L439 809 L97 282 L354 282 L305 0 L367 0 L416 282 L520 282 L530 346 L427 346 L509 809 L509 809 Z M365 346 L208 346 L424 677 L365 346 L365 346 Z " />
<glyph glyph-name="five" unicode="5" horiz-adv-x="454" d="M402 559 C364 590 308 599 239 584 L268 745 L502 745 L512 808 L216 808 L162 499 L205 512 C275 535 325 533 356 508 C395 475 406 400 386 290 C368 187 328 64 235 64 C200 64 170 86 157 124 C148 148 146 176 152 205 L89 205 C82 166 84 127 96 94 C118 35 166 0 224 0 C277 0 325 24 362 71 C403 119 432 193 449 290 C473 424 457 514 402 559 L402 559 Z " />
<glyph glyph-name="six" unicode="6" horiz-adv-x="407" d="M334 745 C384 745 418 696 407 635 L469 635 C486 731 430 809 344 809 C259 809 176 731 160 635 L113 370 L78 176 L78 173 C61 77 118 0 203 0 C288 0 371 77 388 173 L388 173 C388 174 388 175 388 176 L422 370 C438 461 382 536 296 536 C262 536 229 524 199 503 L223 635 C234 696 283 745 334 745 L334 745 Z M286 473 C336 473 370 426 360 370 L325 176 C316 119 265 72 215 72 C164 72 132 119 142 176 L176 370 C186 426 235 473 286 473 L286 473 Z " />
<glyph glyph-name="seven" unicode="7" horiz-adv-x="461" d="M550 808 L190 808 L179 745 L469 745 C439 707 398 647 352 569 C276 439 178 250 134 0 L198 0 C239 238 332 420 404 544 C460 638 511 706 538 738 L550 808 L550 808 Z " />
<glyph glyph-name="eight" unicode="8" horiz-adv-x="448" d="M401 523 C445 552 476 598 486 650 C502 737 445 808 361 808 C276 808 196 737 180 650 C170 598 187 552 220 523 C167 494 125 440 114 380 L77 167 C61 76 122 0 215 0 L223 0 C316 0 403 76 419 167 L456 380 C467 440 444 494 401 523 L401 523 Z M242 650 C252 702 300 744 350 744 C400 744 433 702 424 650 C414 599 366 557 317 557 C266 557 233 599 242 650 L242 650 Z M356 167 C347 110 292 64 234 64 L226 64 C168 64 131 110 140 167 L178 380 C188 437 242 484 300 484 L308 484 C366 484 404 437 394 380 L356 167 L356 167 Z " />
<glyph glyph-name="nine" unicode="9" horiz-adv-x="412" d="M344 808 C344 808 344 808 344 808 L344 808 L344 808 C259 808 176 733 161 642 L127 452 C112 361 167 286 252 286 C287 286 320 299 350 319 L325 173 C314 113 264 64 214 64 C163 64 131 113 142 173 L78 173 C61 78 118 0 203 0 C288 0 371 78 388 173 L437 452 L469 635 L470 642 C486 733 430 808 344 808 L344 808 Z M374 452 C365 396 314 349 264 349 C214 349 181 396 191 452 L223 635 C234 696 283 745 334 745 C384 745 418 696 407 635 L374 452 L374 452 Z " />
<glyph glyph-name="colon" unicode="&#x3a;" horiz-adv-x="162" d="M47 -1 L106 -1 L116 59 L58 59 L47 -1 L47 -1 Z M106 328 L164 328 L174 388 L115 388 L106 328 L106 328 Z " />
<glyph glyph-name="semicolon" unicode="&#x3b;" horiz-adv-x="163" d="M175 389 L116 389 L106 329 L164 329 L175 389 L175 389 Z M116 56 L58 56 L48 1 L74 1 C70 -25 52 -23 52 -23 L48 -43 C100 -43 107 1 107 1 L116 56 L116 56 Z " />
<glyph glyph-name="less" unicode="&#x3c;" horiz-adv-x="373" d="M379 715 L113 394 L254 79 L314 113 L187 394 L427 682 L379 715 Z " />
<glyph glyph-name="equal" unicode="&#x3d;" horiz-adv-x="380" d="M106 438 L410 438 L421 500 L116 500 L106 438 L106 438 Z M79 287 L384 287 L395 349 L90 349 L79 287 L79 287 Z " />
<glyph glyph-name="greater" unicode="&#x3e;" horiz-adv-x="373" d="M164 682 L301 394 L76 113 L124 79 L376 394 L224 715 L164 682 Z " />
<glyph glyph-name="question" unicode="&#x3f;" horiz-adv-x="422" d="M143 0 L205 0 L215 59 L152 59 L143 0 L143 0 Z M353 800 C258 800 166 712 146 602 L210 602 C223 677 282 737 342 737 C402 737 442 683 430 613 C410 499 365 457 311 407 C254 354 190 294 167 151 L230 154 C248 271 296 314 350 365 C407 416 469 475 493 613 C510 719 449 800 353 800 L353 800 Z " />
<glyph glyph-name="at" unicode="&#x40;" horiz-adv-x="673" d="M680 371 C708 527 604 654 446 654 C290 654 140 527 113 371 L77 166 C49 10 154 -118 310 -118 L322 -54 C200 -54 119 44 140 166 L176 371 C198 492 313 592 434 592 C557 592 638 492 617 371 L581 166 L582 166 L575 127 C570 101 539 73 508 67 C498 65 488 67 482 73 C473 82 470 97 473 115 L488 198 L514 342 L542 510 L480 510 L476 485 C460 499 438 508 414 508 C342 508 271 433 256 342 L230 198 C214 107 258 32 330 32 C358 32 386 44 412 65 C416 49 424 35 434 25 C449 11 468 4 490 4 C497 4 503 4 509 5 C571 17 628 71 637 127 L650 203 L650 203 L680 371 L680 371 Z M341 95 C305 95 283 144 293 198 L318 342 C328 397 367 445 403 445 C438 445 461 397 451 342 L426 198 C416 144 376 95 341 95 L341 95 Z " />
<glyph glyph-name="A" unicode="A" horiz-adv-x="486" d="M347 811 L48 0 L112 0 L198 232 L356 232 L360 0 L424 0 L414 811 L347 811 L347 811 Z M221 294 L352 649 L355 294 L221 294 L221 294 Z " />
<glyph glyph-name="B" unicode="B" horiz-adv-x="420" d="M367 492 C407 523 438 572 448 628 L450 644 C466 737 415 811 338 811 L196 811 L53 0 L209 0 C294 0 376 74 392 166 L424 346 C436 409 412 464 367 492 L367 492 Z M247 748 L326 748 C368 748 397 700 388 641 L384 625 C373 569 330 523 288 523 L208 523 L247 748 L247 748 Z M330 166 C320 109 270 64 220 64 L127 64 L194 449 L287 449 C337 449 372 402 361 346 L330 166 L330 166 Z " />
<glyph glyph-name="C" unicode="C" horiz-adv-x="445" d="M347 749 L355 749 C383 749 406 738 422 718 C432 704 439 688 440 670 L504 686 C502 715 491 740 474 762 C449 794 410 811 366 811 L358 811 C265 811 176 734 160 640 L78 173 C61 78 122 0 215 0 L223 0 C294 0 364 47 400 114 L343 136 C322 92 277 64 234 64 L226 64 C168 64 131 113 142 173 L223 640 C234 700 289 749 347 749 L347 749 Z " />
<glyph glyph-name="D" unicode="D" horiz-adv-x="448" d="M373 811 L208 811 L65 0 L233 0 C319 0 402 74 419 166 L504 648 C520 738 461 811 373 811 L373 811 Z M355 166 C346 109 295 64 244 64 L139 64 L260 749 L362 749 C415 749 450 703 440 648 L355 166 L355 166 Z " />
<glyph glyph-name="E" unicode="E" horiz-adv-x="379" d="M53 0 L310 0 L320 62 L127 62 L175 338 L306 338 L317 401 L186 401 L247 748 L440 748 L452 811 L196 811 L53 0 L53 0 Z " />
<glyph glyph-name="F" unicode="F" horiz-adv-x="368" d="M53 0 L116 0 L175 338 L306 338 L317 401 L186 401 L248 749 L442 749 L452 811 L196 811 L53 0 L53 0 Z " />
<glyph glyph-name="G" unicode="G" horiz-adv-x="448" d="M260 337 L386 337 L358 172 C347 112 292 64 234 64 L226 64 C168 64 131 112 142 172 L223 640 C234 700 289 749 347 749 L355 749 C383 749 406 737 422 718 C432 704 439 688 440 670 L504 686 C502 715 491 740 474 761 C449 793 410 811 366 811 L358 811 C265 811 176 734 160 640 L78 172 C61 77 122 0 215 0 L223 0 C316 0 403 77 420 172 L460 401 L271 401 L260 337 L260 337 Z " />
<glyph glyph-name="H" unicode="H" horiz-adv-x="452" d="M401 401 L198 401 L271 811 L208 811 L65 0 L128 0 L187 338 L390 338 L331 0 L395 0 L538 811 L474 811 L401 401 L401 401 Z " />
<glyph glyph-name="I" unicode="I" horiz-adv-x="199" d="M62 0 L126 0 L269 811 L205 811 L62 0 L62 0 Z " />
<glyph glyph-name="J" unicode="J" horiz-adv-x="450" d="M354 173 C343 112 288 62 230 62 C173 62 136 112 146 173 L181 372 L118 372 L83 173 C66 77 127 0 220 0 C312 0 400 77 416 173 L529 811 L467 811 L354 173 L354 173 Z " />
<glyph glyph-name="K" unicode="K" horiz-adv-x="480" d="M559 811 L484 811 L206 473 L266 811 L203 811 L60 0 L124 0 L186 359 L258 451 L343 0 L419 0 L313 514 L559 811 Z " />
<glyph glyph-name="L" unicode="L" horiz-adv-x="379" d="M269 811 L205 811 L62 0 L319 0 L330 64 L137 64 L269 811 L269 811 Z " />
<glyph glyph-name="M" unicode="M" horiz-adv-x="540" d="M546 811 L329 365 L270 811 L205 811 L62 0 L126 0 L232 601 L281 234 L331 234 L514 610 L407 0 L470 0 L613 811 L546 811 Z " />
<glyph glyph-name="N" unicode="N" horiz-adv-x="488" d="M503 811 L389 168 L277 811 L203 811 L60 0 L124 0 L238 649 L352 0 L422 0 L565 811 L503 811 L503 811 Z " />
<glyph glyph-name="O" unicode="O" horiz-adv-x="452" d="M371 811 L362 811 C270 811 182 737 166 644 L82 167 C65 74 127 0 220 0 L228 0 C320 0 407 74 424 167 L508 644 C524 737 463 811 371 811 L371 811 Z M361 167 C352 109 296 62 239 62 L230 62 C173 62 136 109 145 167 L229 644 C240 702 293 748 350 748 L359 748 C416 748 456 702 445 644 L361 167 L361 167 Z " />
<glyph glyph-name="P" unicode="P" horiz-adv-x="445" d="M364 811 L196 811 L116 362 L104 299 L53 0 L116 0 L168 299 L272 299 C359 299 442 373 458 464 L490 646 C506 737 450 811 364 811 L364 811 Z M395 464 C384 408 336 362 284 362 L180 362 L247 748 L352 748 C403 748 437 702 426 646 L395 464 L395 464 Z " />
<glyph glyph-name="Q" unicode="Q" horiz-adv-x="469" d="M430 166 L514 646 C530 737 469 811 377 811 L368 811 C276 811 188 737 172 646 L88 166 C71 74 133 0 226 0 L234 0 C269 0 301 10 331 28 L368 -23 L422 22 L383 71 C407 98 424 131 430 166 L430 166 Z M367 166 C364 149 356 132 347 118 L302 174 L250 131 L293 74 C278 67 262 62 245 62 L236 62 C179 62 142 109 151 166 L235 646 C246 702 300 749 358 749 L366 749 C424 749 462 702 451 646 L367 166 L367 166 Z " />
<glyph glyph-name="R" unicode="R" horiz-adv-x="448" d="M368 330 C413 360 449 409 458 466 L491 647 C506 738 450 811 364 811 L196 811 L53 0 L116 0 L169 300 L265 300 C322 300 360 253 349 197 L316 0 L379 0 L413 197 C424 252 404 300 368 330 L368 330 Z M284 364 L180 364 L248 749 L353 749 C404 749 437 703 427 647 L395 466 C385 409 336 364 284 364 L284 364 Z " />
<glyph glyph-name="S" unicode="S" horiz-adv-x="452" d="M318 432 C263 493 212 554 230 648 C240 704 295 749 354 749 C412 749 449 700 438 638 L502 638 C518 734 457 811 365 811 C271 811 184 740 167 648 C144 527 209 450 266 386 C323 324 374 264 355 168 C338 77 271 64 233 64 C175 64 137 113 148 174 L84 174 C67 78 130 0 222 0 C269 0 312 14 344 41 C383 71 408 114 419 166 C443 292 377 367 318 432 L318 432 Z " />
<glyph glyph-name="T" unicode="T" horiz-adv-x="415" d="M179 748 L300 748 L169 0 L232 0 L362 748 L482 748 L494 811 L191 811 L179 748 L179 748 Z " />
<glyph glyph-name="U" unicode="U" horiz-adv-x="458" d="M361 167 C352 109 296 64 239 64 L230 64 C173 64 136 109 145 167 L259 811 L196 811 L82 167 C65 74 127 0 220 0 L228 0 C320 0 407 74 424 167 L538 811 L475 811 L361 167 L361 167 Z " />
<glyph glyph-name="V" unicode="V" horiz-adv-x="456" d="M254 811 L191 811 L198 0 L250 0 L544 811 L479 811 L260 206 L254 811 Z " />
<glyph glyph-name="W" unicode="W" horiz-adv-x="698" d="M520 263 L482 137 L487 263 L493 702 L437 702 L283 254 L247 137 L252 254 C252 254 254 811 254 811 L191 811 L198 0 L250 0 L407 450 L438 553 L434 450 L432 0 L484 0 L778 811 L713 811 L520 263 L520 263 Z " />
<glyph glyph-name="X" unicode="X" horiz-adv-x="480" d="M482 811 L311 480 L258 811 L191 811 L262 383 L62 0 L130 0 L276 286 L325 0 L392 0 L328 383 L550 811 L482 811 L482 811 Z " />
<glyph glyph-name="Y" unicode="Y" horiz-adv-x="464" d="M304 428 L257 811 L191 811 L252 312 L198 0 L262 0 L317 314 L550 811 L484 811 L304 428 L304 428 Z " />
<glyph glyph-name="Z" unicode="Z" horiz-adv-x="469" d="M216 811 L204 746 L437 746 L48 0 L377 0 L377 0 L388 62 L148 62 L538 811 L216 811 Z " />
<glyph glyph-name="bracketleft" unicode="&#x5b;" horiz-adv-x="317" d="M42 -31 L277 -31 L288 32 L116 32 L247 775 L419 775 L431 839 L196 839 L42 -31 L42 -31 Z " />
<glyph glyph-name="backslash" unicode="&#x5c;" horiz-adv-x="462" d="M410 0 L268 805 L190 805 L331 0 L410 0 L410 0 Z " />
<glyph glyph-name="bracketright" unicode="&#x5d;" horiz-adv-x="320" d="M170 775 L343 775 L212 32 L40 32 L29 -31 L264 -31 L418 839 L182 839 L170 775 L170 775 Z " />
<glyph glyph-name="asciicircum" unicode="&#x5e;" horiz-adv-x="533" d="M168 688 L199 640 L400 787 L553 640 L602 688 L414 869 L168 688 L168 688 Z " />
<glyph glyph-name="underscore" unicode="&#x5f;" horiz-adv-x="551" d="M31 -65 L505 -65 L516 -1 L42 -1 L31 -65 L31 -65 Z " />
<glyph glyph-name="grave" unicode="&#x60;" horiz-adv-x="169" d="M184 773 L194 684 L236 684 L236 773 L184 773 L184 773 Z " />
<glyph glyph-name="a" unicode="a" horiz-adv-x="427" d="M341 583 L335 583 L335 583 C269 581 205 526 193 460 L257 460 C263 492 294 518 328 520 C360 518 380 490 374 454 L360 373 C340 394 312 406 280 406 C199 406 120 330 104 239 L91 168 C76 76 128 0 209 0 C241 0 272 12 300 31 L295 0 L358 0 L438 454 C450 523 407 580 341 583 L341 583 Z M322 168 C312 112 265 64 220 64 C175 64 145 112 155 168 L168 239 C178 295 224 342 269 342 C314 342 344 295 335 239 L322 168 L322 168 Z " />
<glyph glyph-name="b" unicode="b" horiz-adv-x="419" d="M311 583 C280 583 250 572 223 553 L269 811 L205 811 L134 414 L91 169 L62 0 L126 0 L131 30 C150 11 178 0 209 0 C290 0 370 76 385 169 L428 414 C445 508 392 583 311 583 L311 583 Z M322 169 C312 113 265 64 220 64 C175 64 145 113 155 169 L198 414 C209 470 256 520 300 520 C346 520 376 470 365 414 L322 169 L322 169 Z " />
<glyph glyph-name="c" unicode="c" horiz-adv-x="377" d="M300 520 C324 520 344 506 355 482 L415 518 C394 559 356 583 311 583 C230 583 151 506 134 410 L92 172 C76 77 128 0 209 0 C253 0 298 23 334 62 L288 98 C268 76 244 62 220 62 C175 62 145 113 156 172 L198 410 C209 470 256 520 300 520 L300 520 Z " />
<glyph glyph-name="d" unicode="d" horiz-adv-x="440" d="M403 551 C382 571 354 583 322 583 C241 583 162 506 145 413 L103 170 C86 77 139 0 220 0 C252 0 283 12 312 32 L307 0 L370 0 L512 811 L450 811 L403 551 L403 551 Z M334 170 C323 113 276 65 230 65 C186 65 156 113 167 170 L209 413 C220 470 266 518 311 518 C356 518 386 470 376 413 L334 170 L334 170 Z " />
<glyph glyph-name="e" unicode="e" horiz-adv-x="427" d="M311 583 C230 583 151 504 133 408 L92 175 C76 79 128 0 209 0 C290 0 370 79 386 175 L323 175 C312 115 265 65 220 65 C175 65 145 115 156 175 L176 290 L407 290 L427 408 C445 504 392 583 311 583 L311 583 Z M355 354 L188 354 L197 408 C208 468 256 518 300 518 C346 518 374 468 364 408 L355 354 L355 354 Z " />
<glyph glyph-name="f" unicode="f" horiz-adv-x="397" d="M500 774 C480 798 450 811 416 811 C336 811 256 734 239 638 L229 583 L152 583 L142 521 L218 521 L127 0 L190 0 L281 521 L361 521 L372 583 L292 583 L301 638 C312 698 360 749 406 749 C427 749 442 737 450 728 L500 774 L500 774 Z " />
<glyph glyph-name="g" unicode="g" horiz-adv-x="416" d="M390 553 C370 572 342 583 311 583 C230 583 151 509 136 418 L91 167 C76 76 128 0 209 0 C240 0 270 12 298 30 L290 -7 C281 -66 234 -115 188 -115 C167 -115 152 -104 144 -95 L92 -140 C114 -164 144 -178 176 -178 C258 -178 338 -101 354 -7 L385 167 L430 418 L458 583 L395 583 L390 553 L390 553 Z M322 167 C312 110 265 64 220 64 C175 64 145 110 155 167 L199 418 C209 473 256 521 300 521 C346 521 376 473 366 418 L322 167 L322 167 Z " />
<glyph glyph-name="h" unicode="h" horiz-adv-x="416" d="M311 583 C280 583 250 572 223 553 L269 811 L205 811 L62 0 L126 0 L199 416 C209 473 256 521 300 521 C346 521 376 473 366 416 L293 0 L356 0 L430 416 C445 509 392 583 311 583 L311 583 Z " />
<glyph glyph-name="i" unicode="i" horiz-adv-x="190" d="M62 0 L126 0 L228 583 L164 583 L62 0 L62 0 Z M176 653 L240 653 L252 720 L188 720 L176 653 L176 653 Z " />
<glyph glyph-name="j" unicode="j" horiz-adv-x="221" d="M203 653 L266 653 L278 720 L215 720 L203 653 L203 653 Z M89 2 C78 -58 31 -107 -13 -107 C-35 -107 -50 -96 -58 -86 L-110 -140 C-89 -164 -58 -170 -25 -170 C55 -170 136 -92 152 2 L254 583 L191 583 L89 2 L89 2 Z " />
<glyph glyph-name="k" unicode="k" horiz-adv-x="460" d="M422 583 L188 347 L271 811 L208 811 L65 0 L128 0 L170 242 L254 330 L318 0 L390 0 L312 385 L499 583 L422 583 L422 583 Z " />
<glyph glyph-name="l" unicode="l" horiz-adv-x="198" d="M62 0 L126 0 L269 811 L205 811 L62 0 L62 0 Z " />
<glyph glyph-name="m" unicode="m" horiz-adv-x="646" d="M542 583 C496 583 449 558 416 520 C395 558 358 583 311 583 C280 583 250 572 223 553 L228 583 L164 583 L136 416 L62 0 L126 0 L199 416 C209 473 256 520 300 520 C346 520 376 473 366 416 L293 0 L356 0 L430 416 C439 473 486 520 532 520 C577 520 607 473 598 416 L524 0 L587 0 L660 416 C676 509 623 583 542 583 L542 583 Z " />
<glyph glyph-name="n" unicode="n" horiz-adv-x="425" d="M311 583 C280 583 250 572 223 553 L228 583 L164 583 L136 416 L62 0 L126 0 L199 416 C209 473 256 521 300 521 C346 521 376 473 366 416 L293 0 L356 0 L430 416 C445 509 392 583 311 583 L311 583 Z " />
<glyph glyph-name="o" unicode="o" horiz-adv-x="422" d="M311 583 C230 583 151 509 136 418 L91 166 C74 74 128 0 209 0 C290 0 368 74 385 166 L430 418 C445 509 392 583 311 583 L311 583 Z M322 166 C312 110 265 62 220 62 C175 62 145 110 155 166 L199 418 C209 473 256 521 300 521 C346 521 376 473 366 418 L322 166 L322 166 Z " />
<glyph glyph-name="p" unicode="p" horiz-adv-x="425" d="M311 583 C280 583 250 572 223 553 L228 583 L164 583 L136 416 L91 167 L28 -193 L91 -193 L131 30 C150 11 178 0 209 0 C290 0 371 85 388 178 L430 416 C445 509 392 583 311 583 L311 583 Z M322 167 C312 110 265 62 220 62 C175 62 145 110 155 167 L199 416 C209 473 256 520 300 520 C346 520 376 473 366 416 L322 167 L322 167 Z " />
<glyph glyph-name="q" unicode="q" horiz-adv-x="427" d="M344 -80 L461 583 L398 583 L392 551 C371 571 343 583 311 583 C230 583 151 509 136 416 L91 167 C74 74 128 0 209 0 C241 0 272 12 301 32 L282 -80 C271 -137 308 -184 365 -184 L376 -121 C354 -121 341 -102 344 -80 L344 -80 Z M322 167 C312 110 265 64 220 64 C175 64 145 110 155 167 L199 416 C209 473 256 520 300 520 C346 520 376 473 366 416 L322 167 L322 167 Z " />
<glyph glyph-name="r" unicode="r" horiz-adv-x="374" d="M313 583 C282 583 251 571 226 552 L230 583 L167 583 L137 410 L97 185 L65 0 L128 0 L161 185 L200 410 C211 470 258 520 302 520 C326 520 347 506 358 482 L418 518 C396 559 359 583 313 583 L313 583 Z " />
<glyph glyph-name="s" unicode="s" horiz-adv-x="392" d="M275 320 C232 362 194 400 206 458 C212 492 250 518 290 518 C318 518 341 504 349 481 L410 512 C394 556 353 583 301 583 C226 583 156 528 143 460 C126 370 179 317 226 270 C269 227 306 188 294 127 C284 76 242 65 210 65 C180 65 156 82 150 107 L86 82 C100 32 144 0 199 0 C280 0 342 49 356 125 C376 218 323 272 275 320 L275 320 Z " />
<glyph glyph-name="t" unicode="t" horiz-adv-x="349" d="M253 64 C224 64 202 110 212 173 L274 521 L384 521 L395 583 L284 583 L308 716 L245 716 L221 583 L164 583 L154 521 L210 521 L149 173 C132 77 174 0 242 0 C278 0 317 22 346 59 L298 92 C283 74 268 64 253 64 L253 64 Z " />
<glyph glyph-name="u" unicode="u" horiz-adv-x="415" d="M389 551 L322 167 C312 110 265 64 220 64 C175 64 145 110 155 167 L228 583 L164 583 L91 167 C76 76 128 0 209 0 C240 0 270 12 298 30 L293 0 L356 0 L385 167 L452 551 L458 583 L395 583 L389 551 L389 551 Z " />
<glyph glyph-name="v" unicode="v" horiz-adv-x="384" d="M228 583 L164 583 L170 0 L222 0 L431 583 L367 583 L232 206 L228 583 Z " />
<glyph glyph-name="w" unicode="w" horiz-adv-x="594" d="M440 218 C440 218 418 136 415 136 C413 136 421 218 421 218 L424 583 L356 583 L232 218 C232 218 210 136 208 136 C205 136 215 218 215 218 L217 583 L152 583 L164 0 L206 0 L326 340 L370 458 L370 338 L371 0 L414 0 L630 583 L565 583 L440 218 L440 218 Z " />
<glyph glyph-name="x" unicode="x" horiz-adv-x="468" d="M508 583 L438 583 L308 382 L248 583 L179 583 L260 308 L62 0 L132 0 L283 234 L353 0 L422 0 L331 308 L508 583 L508 583 Z " />
<glyph glyph-name="y" unicode="y" horiz-adv-x="416" d="M322 167 C312 110 265 62 220 62 C175 62 145 110 155 167 L228 583 L164 583 L91 167 C74 74 128 0 209 0 C240 0 270 11 298 30 L293 0 C282 -59 235 -108 190 -108 C168 -108 154 -97 145 -88 L94 -134 C115 -158 145 -172 178 -172 C259 -172 340 -95 356 0 L385 167 L458 583 L395 583 L322 167 Z " />
<glyph glyph-name="z" unicode="z" horiz-adv-x="403" d="M449 583 L175 583 L164 520 L344 520 L50 0 L330 0 L341 64 L155 64 L413 520 L449 583 L449 583 Z " />
<glyph glyph-name="braceleft" unicode="&#x7b;" horiz-adv-x="320" d="M246 649 L232 570 C224 526 192 476 167 462 C139 445 121 421 118 396 C113 370 124 346 146 329 C167 314 182 264 175 221 L158 126 C146 55 175 0 226 0 L283 0 L294 62 L236 62 C228 62 214 86 221 126 L238 221 C248 283 228 354 190 382 C181 388 180 392 181 396 C180 400 186 406 193 409 C239 437 283 508 294 570 L308 649 C316 688 338 712 348 712 L408 712 L419 775 L359 775 C307 775 258 720 246 649 L246 649 Z " />
<glyph glyph-name="bar" unicode="&#x7c;" horiz-adv-x="163" d="M30 -97 L94 -97 L263 858 L199 858 L30 -97 L30 -97 Z " />
<glyph glyph-name="braceright" unicode="&#x7d;" horiz-adv-x="320" d="M325 462 C307 476 292 526 299 570 L313 649 C325 720 295 775 244 775 L184 775 L173 712 L233 712 C242 712 258 688 251 649 L236 570 C226 508 246 437 282 409 C287 406 290 400 290 396 C288 392 284 388 276 382 C228 354 181 283 170 221 L154 126 C146 86 125 62 116 62 L59 62 L48 0 L106 0 C156 0 204 55 216 126 L233 221 C240 264 275 314 300 329 C328 346 348 370 353 396 C356 421 348 445 325 462 L325 462 Z " />
<glyph glyph-name="asciitilde" unicode="&#x7e;" horiz-adv-x="510" d="M238 337 C238 337 238 337 238 337 C258 337 274 326 294 313 C337 282 397 240 527 349 L490 394 C402 319 376 338 336 366 C314 382 287 401 250 401 C214 401 168 384 106 331 L143 287 C184 320 214 337 238 337 L238 337 Z " />
<glyph glyph-name="exclamdown" unicode="&#xa1;" horiz-adv-x="162" d="M156 617 L145 558 L209 558 L220 617 L156 617 Z M128 460 L12 -199 L76 -199 L192 460 L128 460 Z " />
<glyph glyph-name="cent" unicode="&#xa2;" horiz-adv-x="388" d="M358 566 C366 559 370 550 372 539 L434 558 C432 580 422 599 408 614 C391 631 371 642 347 647 L360 726 L290 726 L276 643 C218 626 158 578 149 522 L92 204 C83 146 125 98 176 82 L163 0 L233 0 L246 78 C293 88 338 118 362 160 L307 182 C298 164 278 151 258 144 L335 582 C343 578 352 574 358 566 L358 566 Z M156 204 L212 522 C216 544 242 564 264 575 L190 150 C172 162 152 181 156 204 L156 204 Z " />
<glyph glyph-name="sterling" unicode="&#xa3;" horiz-adv-x="494" d="M404 101 C390 77 371 66 344 66 C298 66 229 65 173 65 C194 92 210 128 217 167 L239 289 L374 289 L385 353 L250 353 L296 618 C307 674 354 722 400 722 C418 722 433 716 445 703 L496 750 C473 773 444 786 410 786 C330 786 251 710 234 618 L187 353 L109 353 L98 289 L176 289 L155 167 C144 103 101 64 74 62 C73 62 73 62 73 62 L62 0 C64 0 65 0 66 0 C88 0 247 2 334 2 C385 2 430 29 458 76 C478 107 484 138 484 142 L421 142 C421 142 416 120 404 101 L404 101 Z " />
<glyph glyph-name="currency" unicode="&#xa4;" horiz-adv-x="446" d="M438 553 L377 467 C360 485 336 496 308 496 C282 496 256 485 230 467 L202 553 L140 524 L179 408 C166 384 156 358 151 329 L126 186 C121 157 121 131 126 108 L46 -8 L97 -37 L157 49 C175 30 198 19 224 19 C252 19 280 30 304 49 L334 -37 L395 -8 L356 103 L350 101 C367 126 378 155 384 186 L409 329 C414 358 413 384 407 408 L490 524 L438 553 L438 553 Z M236 83 C202 83 179 131 188 186 L214 329 C223 384 263 433 298 433 C334 433 356 384 347 329 L322 186 C312 131 272 83 236 83 L236 83 Z " />
<glyph glyph-name="yen" unicode="&#xa5;" horiz-adv-x="481" d="M499 827 L299 412 L241 827 L178 808 L235 392 L155 392 L144 330 L244 330 L247 307 L241 276 L134 276 L124 214 L230 214 L193 0 L257 0 L294 214 L401 214 L412 276 L305 276 L308 293 L325 330 L421 330 L432 392 L355 392 L556 808 L499 827 L499 827 Z " />
<glyph glyph-name="brokenbar" unicode="&#xa6;" horiz-adv-x="185" d="M134 494 L198 494 L253 809 L190 809 L134 494 L134 494 Z M68 118 L132 118 L187 432 L124 432 L68 118 L68 118 Z " />
<glyph glyph-name="section" unicode="&#xa7;" horiz-adv-x="592" d="M462 438 C404 496 354 544 370 625 C379 674 432 713 491 713 C550 713 589 670 580 617 L642 617 C658 704 596 776 503 776 C409 776 323 710 307 626 C300 587 304 553 313 523 C312 523 310 523 307 523 C215 523 130 457 113 373 C92 262 158 196 218 137 C276 79 328 30 310 -55 C294 -134 228 -145 190 -145 C133 -145 95 -102 103 -49 L40 -49 C24 -137 88 -209 179 -209 C226 -209 268 -196 300 -172 C337 -145 362 -106 372 -56 C380 -18 378 16 368 44 C371 44 372 44 373 44 C420 44 462 58 496 82 C533 108 558 148 568 197 C592 312 522 379 462 438 L462 438 Z M506 198 C490 120 422 108 384 108 C356 108 332 118 316 137 L314 136 C300 154 283 169 268 185 C210 241 161 290 176 372 C185 421 239 460 296 460 C326 460 356 449 372 431 L373 431 C386 416 400 403 413 390 C472 332 522 283 506 198 L506 198 Z " />
<glyph glyph-name="dieresis" unicode="&#xa8;" horiz-adv-x="270" d="M264 701 L323 701 L334 761 L275 761 L264 701 L264 701 Z M170 701 L229 701 L240 761 L181 761 L170 701 L170 701 Z " />
<glyph glyph-name="copyright" unicode="&#xa9;" horiz-adv-x="635" d="M456 814 C310 814 168 686 140 530 L97 283 C70 127 167 0 313 0 C460 0 600 127 628 283 L671 530 C698 686 602 814 456 814 L456 814 Z M565 283 C544 162 436 62 324 62 C212 62 139 162 161 283 L204 530 C226 652 334 751 445 751 C557 751 630 652 608 530 L565 283 L565 283 Z M427 619 C451 619 473 606 484 583 L542 620 C520 660 484 683 439 683 C358 683 278 607 262 516 L223 298 C208 206 260 131 342 131 C385 131 430 154 466 191 L420 228 C401 206 376 194 353 194 C307 194 277 241 287 298 L325 516 C336 572 382 619 427 619 L427 619 Z " />
<glyph glyph-name="ordfeminine" unicode="&#xaa;" horiz-adv-x="250" d="M263 790 L260 790 L260 790 C223 788 187 758 180 721 L216 721 C219 739 237 753 256 754 C274 753 285 738 282 718 L274 672 C262 684 247 691 229 691 C183 691 139 648 130 597 L123 558 C115 506 144 464 189 464 C207 464 224 471 240 481 L237 464 L273 464 L317 718 C324 756 300 788 263 790 L263 790 Z M252 558 C247 527 220 500 195 500 C170 500 153 527 159 558 L166 597 C172 629 197 655 223 655 C248 655 265 629 260 597 L252 558 L252 558 Z " />
<glyph glyph-name="guillemotleft" unicode="&#xab;" horiz-adv-x="443" d="M286 600 L116 389 L210 173 L270 206 L191 389 L334 566 L286 600 Z M430 600 L260 389 L354 173 L414 206 L335 389 L478 566 L430 600 Z " />
<glyph glyph-name="logicalnot" unicode="&#xac;" horiz-adv-x="628" d="M90 325 L569 325 L545 187 L608 187 L644 389 L102 389 L90 325 L90 325 Z " />
<glyph glyph-name="uni00AD" unicode="&#xad;" horiz-adv-x="373" d="M97 371 L402 371 L413 433 L108 433 L97 371 Z " />
<glyph glyph-name="registered" unicode="&#xae;" horiz-adv-x="568" d="M476 475 L493 570 C504 626 467 672 412 672 L305 672 L305 671 L294 608 L264 436 L252 372 L228 233 L290 233 L314 372 L352 372 C376 372 391 344 385 312 L370 220 L433 220 L449 312 C455 347 448 378 432 401 C455 419 472 445 476 475 L476 475 Z M356 608 L401 608 C421 608 433 592 430 570 L413 475 C409 454 391 436 371 436 L326 436 L356 608 L356 608 Z M475 808 L379 808 C275 808 175 724 156 619 L96 272 C77 168 148 84 252 84 L348 84 C451 84 551 168 570 272 L630 619 C649 724 578 808 475 808 L475 808 Z M508 272 C494 203 427 146 359 146 L263 146 C193 146 146 203 160 272 L220 619 C233 689 299 745 368 745 L464 745 C533 745 581 689 568 619 L508 272 L508 272 Z " />
<glyph glyph-name="macron" unicode="&#xaf;" horiz-adv-x="374" d="M163 746 L468 746 L479 809 L174 809 L163 746 Z " />
<glyph glyph-name="degree" unicode="&#xb0;" horiz-adv-x="241" d="M338 720 C348 769 314 809 265 809 C217 809 172 769 162 720 C154 672 186 632 234 632 C283 632 330 672 338 720 L338 720 Z M244 684 C224 684 212 701 216 720 C220 740 238 756 257 756 C277 756 288 740 284 720 C281 701 264 684 244 684 L244 684 Z " />
<glyph glyph-name="plusminus" unicode="&#xb1;" horiz-adv-x="392" d="M53 115 L377 115 L389 179 L65 179 L53 115 L53 115 Z M324 556 L262 556 L239 425 L108 425 L97 361 L228 361 L205 232 L268 232 L290 361 L421 361 L432 425 L301 425 L324 556 L324 556 Z " />
<glyph glyph-name="twosuperior" unicode="&#xb2;" horiz-adv-x="260" d="M337 698 C347 761 313 809 260 809 C208 809 157 758 145 692 L204 692 C210 726 234 750 251 750 C271 750 282 727 277 698 C269 642 235 610 197 570 C155 528 107 480 94 401 L89 372 L264 372 L275 431 L161 431 C175 472 203 500 236 533 C277 575 324 622 337 698 L337 698 Z " />
<glyph glyph-name="threesuperior" unicode="&#xb3;" horiz-adv-x="258" d="M250 684 L362 810 L176 810 L166 751 L238 751 L134 636 L192 636 C252 636 248 569 241 528 C230 466 204 432 188 432 C172 432 157 456 162 490 L103 490 C92 425 125 373 178 373 C226 373 282 421 301 528 C317 618 289 666 250 684 L250 684 Z " />
<glyph glyph-name="acute" unicode="&#xb4;" horiz-adv-x="170" d="M168 684 L210 684 L252 773 L199 773 L168 684 L168 684 Z " />
<glyph glyph-name="&amp;#xb5;" unicode="&#xb5;" horiz-adv-x="392" d="M371 528 L307 167 C298 112 251 64 205 64 C161 64 131 112 140 167 L211 568 L211 568 L148 568 L148 568 L77 167 L23 -142 L86 -142 L116 31 C136 12 163 1 194 1 C226 1 256 12 283 31 L277 -4 L341 -4 L371 167 L434 528 L442 568 L378 568 L371 528 L371 528 Z " />
<glyph glyph-name="&amp;#x3bc;" unicode="&#x3bc;" horiz-adv-x="392" d="M371 528 L307 167 C298 112 251 64 205 64 C161 64 131 112 140 167 L211 568 L211 568 L148 568 L148 568 L77 167 L23 -142 L86 -142 L116 31 C136 12 163 1 194 1 C226 1 256 12 283 31 L277 -4 L341 -4 L371 167 L434 528 L442 568 L378 568 L371 528 L371 528 Z " />
<glyph glyph-name="paragraph" unicode="&#xb6;" horiz-adv-x="556" d="M509 778 L341 778 C254 778 172 706 156 618 L126 446 C110 358 167 286 253 286 L358 286 L308 0 L372 0 L421 286 L433 349 L497 713 L565 713 L440 0 L504 0 L641 776 L509 776 L509 778 L509 778 Z " />
<glyph glyph-name="periodcentered" unicode="&#xb7;" horiz-adv-x="170" d="M168 476 C139 476 110 452 106 422 C100 394 120 370 149 370 C178 370 205 394 211 422 C216 452 197 476 168 476 L168 476 Z " />
<glyph glyph-name="cedilla" unicode="&#xb8;" horiz-adv-x="206" d="M125 22 L62 22 C54 -24 70 -49 80 -65 C85 -73 89 -79 89 -82 C86 -92 60 -103 29 -103 L18 -166 C88 -166 142 -132 151 -82 C155 -56 145 -40 137 -26 C128 -12 120 -1 125 22 L125 22 Z " />
<glyph glyph-name="onesuperior" unicode="&#xb9;" horiz-adv-x="205" d="M300 810 L220 810 L164 757 L202 719 L228 743 L162 372 L222 372 L299 809 L298 809 L300 810 Z " />
<glyph glyph-name="ordmasculine" unicode="&#xba;" horiz-adv-x="391" d="M307 626 C227 626 148 552 131 461 L88 211 C71 120 124 46 204 46 C286 46 365 120 382 211 L425 461 C442 552 389 626 307 626 L307 626 Z M318 211 C307 156 260 108 215 108 C170 108 140 156 151 211 L194 461 C204 516 251 564 295 564 C341 564 371 516 361 461 L318 211 Z " />
<glyph glyph-name="guillemotright" unicode="&#xbb;" horiz-adv-x="449" d="M304 566 L384 389 L240 206 L288 173 L458 389 L364 600 L304 566 Z M160 566 L240 389 L96 206 L144 173 L314 389 L220 600 L160 566 Z " />
<glyph glyph-name="onequarter" unicode="&#xbc;" horiz-adv-x="556" d="M300 810 L220 810 L164 757 L202 719 L228 743 L162 372 L222 372 L299 809 L298 809 L300 810 Z M534 440 L480 440 L296 144 L424 144 L398 2 L457 2 L482 144 L516 144 L526 203 L492 203 L534 440 Z M433 203 L397 203 L448 286 L433 203 Z M79 0 L158 0 L583 805 L505 805 L79 0 L79 0 Z " />
<glyph glyph-name="onehalf" unicode="&#xbd;" horiz-adv-x="520" d="M300 810 L220 810 L164 757 L202 719 L228 743 L162 372 L222 372 L299 809 L298 809 L300 810 Z M568 329 C577 391 544 439 491 439 C438 439 388 389 376 323 L434 323 C440 356 463 380 480 380 C500 380 512 358 508 329 C499 272 466 240 427 200 C385 158 337 110 324 31 L319 2 L494 2 L504 61 L390 61 C404 102 433 131 466 163 C508 205 554 252 568 329 L568 329 Z M64 0 L143 0 L568 805 L490 805 L64 0 L64 0 Z " />
<glyph glyph-name="threequarters" unicode="&#xbe;" horiz-adv-x="553" d="M176 810 L166 751 L238 751 L134 636 L192 636 C252 636 248 569 241 528 C230 466 204 432 188 432 C172 432 157 456 162 490 L103 490 C92 425 125 373 178 373 C226 373 282 421 301 528 C317 618 289 666 250 684 L362 810 L176 810 Z M176 810 L166 751 L238 751 L134 636 L192 636 C252 636 248 569 241 528 C230 466 204 432 188 432 C172 432 157 456 162 490 L103 490 C92 425 125 373 178 373 C226 373 282 421 301 528 C317 618 289 666 250 684 L362 810 L176 810 Z M176 810 L166 751 L238 751 L134 636 L192 636 C252 636 248 569 241 528 C230 466 204 432 188 432 C172 432 157 456 162 490 L103 490 C92 425 125 373 178 373 C226 373 282 421 301 528 C317 618 289 666 250 684 L362 810 L176 810 Z M570 440 L516 440 L332 144 L460 144 L434 2 L493 2 L518 144 L552 144 L562 203 L528 203 L570 440 Z M469 203 L433 203 L484 286 L469 203 Z M107 0 L186 0 L611 805 L533 805 L107 0 L107 0 Z " />
<glyph glyph-name="questiondown" unicode="&#xbf;" horiz-adv-x="422" d="M389 644 L326 644 L317 586 L379 586 L389 644 Z M179 -156 C274 -156 366 -67 385 42 L322 42 C308 -32 250 -92 190 -92 C130 -92 90 -38 102 31 C121 145 167 187 220 238 C277 290 342 350 365 493 L301 491 C282 373 235 330 181 280 C125 228 61 169 38 31 C22 -74 83 -156 179 -156 L179 -156 Z " />
<glyph glyph-name="Agrave" unicode="&#xc0;" horiz-adv-x="458" d="M328 811 L29 0 L93 0 L179 232 L337 232 L341 0 L405 0 L395 811 L328 811 L328 811 Z M202 294 L333 649 L336 294 L202 294 L202 294 Z M369 997 L379 908 L421 908 L421 997 L369 997 L369 997 Z " />
<glyph glyph-name="Aacute" unicode="&#xc1;" horiz-adv-x="458" d="M328 811 L29 0 L93 0 L179 232 L337 232 L341 0 L405 0 L395 811 L328 811 L328 811 Z M202 294 L333 649 L336 294 L202 294 L202 294 Z M353 908 L395 908 L437 997 L384 997 L353 908 L353 908 Z " />
<glyph glyph-name="Acircumflex" unicode="&#xc2;" horiz-adv-x="458" d="M328 811 L29 0 L93 0 L179 232 L337 232 L341 0 L405 0 L395 811 L328 811 L328 811 Z M202 294 L333 649 L336 294 L202 294 L202 294 Z M201 825 L234 777 L382 882 L487 773 L535 821 L397 964 L201 825 Z " />
<glyph glyph-name="Atilde" unicode="&#xc3;" horiz-adv-x="458" d="M328 811 L29 0 L93 0 L179 232 L337 232 L341 0 L405 0 L395 811 L328 811 L328 811 Z M202 294 L333 649 L336 294 L202 294 L202 294 Z M364 909 C408 878 468 836 597 945 L561 990 C473 915 448 934 407 962 C384 978 358 997 321 997 C285 997 239 980 177 927 L214 883 C254 916 286 933 310 933 C310 933 310 933 310 933 C329 933 346 922 364 909 L364 909 Z " />
<glyph glyph-name="Adieresis" unicode="&#xc4;" horiz-adv-x="458" d="M328 811 L29 0 L93 0 L179 232 L337 232 L341 0 L405 0 L395 811 L328 811 L328 811 Z M202 294 L333 649 L336 294 L202 294 L202 294 Z M385 925 L444 925 L455 985 L396 985 L385 925 L385 925 Z M291 925 L350 925 L361 985 L302 985 L291 925 L291 925 Z " />
<glyph glyph-name="Aring" unicode="&#xc5;" horiz-adv-x="458" d="M328 811 L29 0 L93 0 L179 232 L337 232 L341 0 L405 0 L395 811 L328 811 L328 811 Z M202 294 L333 649 L336 294 L202 294 L202 294 Z M481 922 C491 971 457 1011 408 1011 C360 1011 315 971 305 922 C297 874 329 834 377 834 C426 834 473 874 481 922 L481 922 L481 922 Z M387 886 C367 886 355 903 359 922 C363 942 381 958 400 958 C420 958 431 942 427 922 C424 903 407 886 387 886 L387 886 Z " />
<glyph glyph-name="AE" unicode="&#xc6;" horiz-adv-x="677" d="M740 745 L751 809 L551 809 L494 809 L484 809 L43 0 L107 0 L234 232 L392 232 L379 154 L353 0 L355 0 L419 0 L610 0 L620 62 L428 62 L450 194 L475 338 L606 338 L617 401 L486 401 L547 745 L740 745 L740 745 Z M268 294 L461 649 L402 294 L268 294 L268 294 Z " />
<glyph glyph-name="Ccedilla" unicode="&#xc7;" horiz-adv-x="437" d="M328 749 L336 749 C364 749 387 738 403 718 C413 704 420 688 421 670 L485 686 C483 715 472 740 455 762 C430 794 391 811 347 811 L339 811 C246 811 157 734 141 640 L59 173 C42 78 103 0 196 0 L204 0 C275 0 345 47 381 114 L324 136 C303 92 258 64 215 64 L207 64 C149 64 112 113 123 173 L204 640 C215 700 270 749 328 749 L328 749 Z M246 -8 L183 -8 C175 -54 191 -79 201 -95 C206 -103 210 -109 210 -112 C207 -122 181 -133 150 -133 L139 -196 C209 -196 263 -162 272 -112 C276 -86 266 -70 258 -56 C249 -42 241 -31 246 -8 L246 -8 Z " />
<glyph glyph-name="Egrave" unicode="&#xc8;" horiz-adv-x="359" d="M34 0 L291 0 L301 62 L108 62 L156 338 L287 338 L298 401 L167 401 L228 748 L421 748 L433 811 L177 811 L34 0 L34 0 Z M318 997 L328 908 L370 908 L370 997 L318 997 L318 997 Z " />
<glyph glyph-name="Eacute" unicode="&#xc9;" horiz-adv-x="359" d="M34 0 L291 0 L301 62 L108 62 L156 338 L287 338 L298 401 L167 401 L228 748 L421 748 L433 811 L177 811 L34 0 L34 0 Z M302 908 L344 908 L386 997 L333 997 L302 908 L302 908 Z " />
<glyph glyph-name="Ecircumflex" unicode="&#xca;" horiz-adv-x="359" d="M34 0 L291 0 L301 62 L108 62 L156 338 L287 338 L298 401 L167 401 L228 748 L421 748 L433 811 L177 811 L34 0 L34 0 Z M168 906 L201 858 L349 963 L454 854 L502 902 L364 1045 L168 906 Z " />
<glyph glyph-name="Edieresis" unicode="&#xcb;" horiz-adv-x="359" d="M34 0 L291 0 L301 62 L108 62 L156 338 L287 338 L298 401 L167 401 L228 748 L421 748 L433 811 L177 811 L34 0 L34 0 Z M335 925 L394 925 L405 985 L346 985 L335 925 L335 925 Z M241 925 L300 925 L311 985 L252 985 L241 925 L241 925 Z " />
<glyph glyph-name="Igrave" unicode="&#xcc;" horiz-adv-x="169" d="M43 0 L107 0 L250 811 L186 811 L43 0 L43 0 Z M224 997 L234 908 L276 908 L276 997 L224 997 L224 997 Z " />
<glyph glyph-name="Iacute" unicode="&#xcd;" horiz-adv-x="169" d="M43 0 L107 0 L250 811 L186 811 L43 0 L43 0 Z M208 908 L250 908 L292 997 L239 997 L208 908 L208 908 Z " />
<glyph glyph-name="Icircumflex" unicode="&#xce;" horiz-adv-x="169" d="M43 0 L107 0 L250 811 L186 811 L43 0 L43 0 Z M73 906 L106 858 L254 963 L359 854 L407 902 L269 1045 L73 906 Z " />
<glyph glyph-name="Idieresis" unicode="&#xcf;" horiz-adv-x="169" d="M43 0 L107 0 L250 811 L186 811 L43 0 L43 0 Z M241 925 L300 925 L311 985 L252 985 L241 925 L241 925 Z M147 925 L206 925 L217 985 L158 985 L147 925 L147 925 Z " />
<glyph glyph-name="Eth" unicode="&#xd0;" horiz-adv-x="445" d="M372 808 L270 808 L206 808 L140 433 L96 433 L85 371 L130 371 L65 0 L76 0 L128 0 L233 0 C319 0 402 74 419 166 L503 644 C518 734 460 808 372 808 L372 808 Z M355 166 C346 109 295 64 244 64 L139 64 L193 371 L330 371 L341 433 L204 433 L259 745 L361 745 C414 745 449 700 439 644 L355 166 L355 166 Z " />
<glyph glyph-name="Ntilde" unicode="&#xd1;" horiz-adv-x="454" d="M484 811 L370 168 L258 811 L184 811 L41 0 L105 0 L219 649 L333 0 L403 0 L546 811 L484 811 L484 811 Z M361 909 C405 878 465 836 594 945 L558 990 C470 915 445 934 404 962 C381 978 355 997 318 997 C282 997 236 980 174 927 L211 883 C251 916 283 933 307 933 C307 933 307 933 307 933 C326 933 343 922 361 909 L361 909 Z " />
<glyph glyph-name="Ograve" unicode="&#xd2;" horiz-adv-x="438" d="M352 811 L343 811 C251 811 163 737 147 644 L63 167 C46 74 108 0 201 0 L209 0 C301 0 388 74 405 167 L489 644 C505 737 444 811 352 811 L352 811 Z M342 167 C333 109 277 62 220 62 L211 62 C154 62 117 109 126 167 L210 644 C221 702 274 748 331 748 L340 748 C397 748 437 702 426 644 L342 167 L342 167 Z M358 997 L368 908 L410 908 L410 997 L358 997 L358 997 Z " />
<glyph glyph-name="Oacute" unicode="&#xd3;" horiz-adv-x="438" d="M352 811 L343 811 C251 811 163 737 147 644 L63 167 C46 74 108 0 201 0 L209 0 C301 0 388 74 405 167 L489 644 C505 737 444 811 352 811 L352 811 Z M342 167 C333 109 277 62 220 62 L211 62 C154 62 117 109 126 167 L210 644 C221 702 274 748 331 748 L340 748 C397 748 437 702 426 644 L342 167 L342 167 Z M338 888 L380 888 L422 977 L369 977 L338 888 L338 888 Z " />
<glyph glyph-name="Ocircumflex" unicode="&#xd4;" horiz-adv-x="438" d="M352 811 L343 811 C251 811 163 737 147 644 L63 167 C46 74 108 0 201 0 L209 0 C301 0 388 74 405 167 L489 644 C505 737 444 811 352 811 L352 811 Z M342 167 C333 109 277 62 220 62 L211 62 C154 62 117 109 126 167 L210 644 C221 702 274 748 331 748 L340 748 C397 748 437 702 426 644 L342 167 L342 167 Z M206 906 L239 858 L387 963 L492 854 L540 902 L402 1045 L206 906 Z " />
<glyph glyph-name="Otilde" unicode="&#xd5;" horiz-adv-x="438" d="M352 811 L343 811 C251 811 163 737 147 644 L63 167 C46 74 108 0 201 0 L209 0 C301 0 388 74 405 167 L489 644 C505 737 444 811 352 811 L352 811 Z M342 167 C333 109 277 62 220 62 L211 62 C154 62 117 109 126 167 L210 644 C221 702 274 748 331 748 L340 748 C397 748 437 702 426 644 L342 167 L342 167 Z M354 909 C398 878 458 836 587 945 L551 990 C463 915 438 934 397 962 C374 978 348 997 311 997 C275 997 229 980 167 927 L204 883 C244 916 276 933 300 933 C300 933 300 933 300 933 C319 933 336 922 354 909 L354 909 Z " />
<glyph glyph-name="Odieresis" unicode="&#xd6;" horiz-adv-x="438" d="M400 845 L487 845 L503 935 L415 935 L400 845 Z M258 845 L347 845 L362 935 L274 935 L258 845 Z M352 811 L343 811 C251 811 163 737 147 644 L63 167 C46 74 108 0 201 0 L209 0 C301 0 388 74 405 167 L489 644 C505 737 444 811 352 811 L352 811 Z M342 167 C333 109 277 62 220 62 L211 62 C154 62 117 109 126 167 L210 644 C221 702 274 748 331 748 L340 748 C397 748 437 702 426 644 L342 167 L342 167 Z " />
<glyph glyph-name="multiply" unicode="&#xd7;" horiz-adv-x="365" d="M359 473 L250 380 L174 473 L121 428 L198 336 L89 244 L126 199 L234 292 L311 199 L362 244 L287 336 L395 428 L359 473 L359 473 Z " />
<glyph glyph-name="Oslash" unicode="&#xd8;" horiz-adv-x="452" d="M481 805 L448 737 C422 755 392 766 358 766 L349 766 C257 766 169 691 154 600 L76 157 C67 110 78 70 102 40 L58 -53 L114 -72 L151 2 C169 -5 190 -10 212 -10 L221 -10 C313 -10 401 65 418 157 L496 600 C500 630 497 660 487 684 L538 786 L481 805 L481 805 Z M139 157 L217 600 C227 656 281 703 338 703 L347 703 C376 703 400 691 415 672 L139 114 C136 127 136 142 139 157 L139 157 Z M355 157 C344 100 289 53 232 53 L223 53 C206 53 193 56 181 64 L426 559 L355 157 L355 157 Z " />
<glyph glyph-name="Ugrave" unicode="&#xd9;" horiz-adv-x="446" d="M342 167 C333 109 277 64 220 64 L211 64 C154 64 117 109 126 167 L240 811 L177 811 L63 167 C46 74 108 0 201 0 L209 0 C301 0 388 74 405 167 L519 811 L456 811 L342 167 L342 167 Z M362 997 L372 908 L414 908 L414 997 L362 997 L362 997 Z " />
<glyph glyph-name="Uacute" unicode="&#xda;" horiz-adv-x="446" d="M342 167 C333 109 277 64 220 64 L211 64 C154 64 117 109 126 167 L240 811 L177 811 L63 167 C46 74 108 0 201 0 L209 0 C301 0 388 74 405 167 L519 811 L456 811 L342 167 L342 167 Z M346 908 L388 908 L430 997 L377 997 L346 908 L346 908 Z " />
<glyph glyph-name="Ucircumflex" unicode="&#xdb;" horiz-adv-x="446" d="M342 167 C333 109 277 64 220 64 L211 64 C154 64 117 109 126 167 L240 811 L177 811 L63 167 C46 74 108 0 201 0 L209 0 C301 0 388 74 405 167 L519 811 L456 811 L342 167 L342 167 Z M210 906 L243 858 L391 963 L496 854 L544 902 L406 1045 L210 906 Z " />
<glyph glyph-name="Udieresis" unicode="&#xdc;" horiz-adv-x="446" d="M342 167 C333 109 277 64 220 64 L211 64 C154 64 117 109 126 167 L240 811 L177 811 L63 167 C46 74 108 0 201 0 L209 0 C301 0 388 74 405 167 L519 811 L456 811 L342 167 L342 167 Z M378 925 L437 925 L448 985 L389 985 L378 925 L378 925 Z M284 925 L343 925 L354 985 L295 985 L284 925 L284 925 Z " />
<glyph glyph-name="Yacute" unicode="&#xdd;" horiz-adv-x="466" d="M285 428 L238 811 L172 811 L233 312 L179 0 L243 0 L298 314 L531 811 L465 811 L285 428 L285 428 Z M355 908 L397 908 L439 997 L386 997 L355 908 L355 908 Z " />
<glyph glyph-name="Thorn" unicode="&#xde;" horiz-adv-x="390" d="M332 702 C301 702 270 691 244 672 L270 823 L206 823 L156 535 L113 287 L38 -133 L102 -133 L152 150 C172 131 198 120 229 120 C311 120 392 205 408 298 L450 535 C467 628 414 702 332 702 L332 702 Z M343 287 C332 230 286 182 240 182 C196 182 166 230 176 287 L220 535 C229 592 276 638 320 638 C366 638 396 592 386 535 L343 287 Z " />
<glyph glyph-name="germandbls" unicode="&#xdf;" horiz-adv-x="468" d="M416 476 C404 487 394 496 382 503 C422 528 460 568 478 625 C510 730 470 781 444 802 C401 835 332 839 272 810 C216 784 176 734 167 677 L48 0 L112 0 L230 677 C239 722 271 745 290 755 C329 773 373 770 400 750 C426 727 433 688 418 634 C389 540 286 526 276 524 C275 524 274 524 274 524 L269 462 C270 462 270 462 271 462 C278 462 331 466 366 428 C398 394 409 334 394 248 C380 175 358 125 324 97 C286 65 239 66 200 67 C194 67 190 68 185 68 L173 5 C178 5 182 5 188 5 C233 4 300 1 360 52 C409 92 440 157 456 248 C474 353 462 430 416 476 L416 476 Z " />
<glyph glyph-name="agrave" unicode="&#xe0;" horiz-adv-x="400" d="M323 583 L317 583 L317 583 C251 581 187 526 175 460 L239 460 C245 492 276 518 310 520 C342 518 362 490 356 454 L342 373 C322 394 294 406 262 406 C181 406 102 330 86 239 L73 168 C58 76 110 0 191 0 C223 0 254 12 282 31 L277 0 L340 0 L420 454 C432 523 389 580 323 583 L323 583 Z M304 168 C294 112 247 64 202 64 C157 64 127 112 137 168 L150 239 C160 295 206 342 251 342 C296 342 326 295 317 239 L304 168 L304 168 Z M300 773 L310 684 L352 684 L352 773 L300 773 L300 773 Z " />
<glyph glyph-name="aacute" unicode="&#xe1;" horiz-adv-x="400" d="M323 583 L317 583 L317 583 C251 581 187 526 175 460 L239 460 C245 492 276 518 310 520 C342 518 362 490 356 454 L342 373 C322 394 294 406 262 406 C181 406 102 330 86 239 L73 168 C58 76 110 0 191 0 C223 0 254 12 282 31 L277 0 L340 0 L420 454 C432 523 389 580 323 583 L323 583 Z M304 168 C294 112 247 64 202 64 C157 64 127 112 137 168 L150 239 C160 295 206 342 251 342 C296 342 326 295 317 239 L304 168 L304 168 Z M334 684 L376 684 L418 773 L365 773 L334 684 L334 684 Z " />
<glyph glyph-name="acircumflex" unicode="&#xe2;" horiz-adv-x="400" d="M323 583 L317 583 L317 583 C251 581 187 526 175 460 L239 460 C245 492 276 518 310 520 C342 518 362 490 356 454 L342 373 C322 394 294 406 262 406 C181 406 102 330 86 239 L73 168 C58 76 110 0 191 0 C223 0 254 12 282 31 L277 0 L340 0 L420 454 C432 523 389 580 323 583 L323 583 Z M304 168 C294 112 247 64 202 64 C157 64 127 112 137 168 L150 239 C160 295 206 342 251 342 C296 342 326 295 317 239 L304 168 L304 168 Z M149 682 L182 634 L330 739 L435 630 L483 678 L345 821 L149 682 Z " />
<glyph glyph-name="atilde" unicode="&#xe3;" horiz-adv-x="400" d="M323 583 L317 583 L317 583 C251 581 187 526 175 460 L239 460 C245 492 276 518 310 520 C342 518 362 490 356 454 L342 373 C322 394 294 406 262 406 C181 406 102 330 86 239 L73 168 C58 76 110 0 191 0 C223 0 254 12 282 31 L277 0 L340 0 L420 454 C432 523 389 580 323 583 L323 583 Z M304 168 C294 112 247 64 202 64 C157 64 127 112 137 168 L150 239 C160 295 206 342 251 342 C296 342 326 295 317 239 L304 168 L304 168 Z M314 674 C348 650 394 618 495 702 L467 737 C398 679 379 694 347 715 C329 728 309 743 280 743 C252 743 216 729 168 688 L197 654 C228 680 253 693 272 693 C272 693 272 693 272 693 C286 693 300 684 314 674 L314 674 Z " />
<glyph glyph-name="adieresis" unicode="&#xe4;" horiz-adv-x="400" d="M323 583 L317 583 L317 583 C251 581 187 526 175 460 L239 460 C245 492 276 518 310 520 C342 518 362 490 356 454 L342 373 C322 394 294 406 262 406 C181 406 102 330 86 239 L73 168 C58 76 110 0 191 0 C223 0 254 12 282 31 L277 0 L340 0 L420 454 C432 523 389 580 323 583 L323 583 Z M304 168 C294 112 247 64 202 64 C157 64 127 112 137 168 L150 239 C160 295 206 342 251 342 C296 342 326 295 317 239 L304 168 L304 168 Z M317 701 L376 701 L387 761 L328 761 L317 701 L317 701 Z M223 701 L282 701 L293 761 L234 761 L223 701 L223 701 Z " />
<glyph glyph-name="aring" unicode="&#xe5;" horiz-adv-x="400" d="M323 583 L317 583 L317 583 C251 581 187 526 175 460 L239 460 C245 492 276 518 310 520 C342 518 362 490 356 454 L342 373 C322 394 294 406 262 406 C181 406 102 330 86 239 L73 168 C58 76 110 0 191 0 C223 0 254 12 282 31 L277 0 L340 0 L420 454 C432 523 389 580 323 583 L323 583 Z M304 168 C294 112 247 64 202 64 C157 64 127 112 137 168 L150 239 C160 295 206 342 251 342 C296 342 326 295 317 239 L304 168 L304 168 Z M418 720 C428 769 394 809 345 809 C297 809 252 769 242 720 C234 672 266 632 314 632 C363 632 410 672 418 720 L418 720 L418 720 Z M324 684 C304 684 292 701 296 720 C300 740 318 756 337 756 C357 756 368 740 364 720 C361 701 344 684 324 684 L324 684 Z " />
<glyph glyph-name="ae" unicode="&#xe6;" horiz-adv-x="619" d="M623 290 L643 408 C661 504 608 583 527 583 C486 583 445 563 413 530 C397 560 366 581 328 583 L322 583 C256 581 192 526 180 460 L244 460 C250 492 281 518 314 520 C347 518 367 490 361 454 L360 446 C355 434 352 421 349 408 L344 376 C324 395 298 406 266 406 C186 406 107 330 91 239 L78 168 C62 76 115 0 196 0 C228 0 259 12 287 31 L282 0 L344 0 L349 29 C368 11 395 0 425 0 C506 0 586 79 602 175 L539 175 C528 115 481 65 436 65 C398 65 371 101 370 148 L396 290 L623 290 L623 290 Z M516 518 C562 518 590 468 580 408 L571 354 L408 354 L422 439 C442 485 480 518 516 518 L516 518 Z M206 64 C162 64 132 112 142 168 L155 239 C164 295 211 342 256 342 C296 342 324 305 323 256 L308 175 C307 169 306 163 307 157 C293 106 250 64 206 64 L206 64 Z " />
<glyph glyph-name="ccedilla" unicode="&#xe7;" horiz-adv-x="352" d="M282 520 C306 520 326 506 337 482 L397 518 C376 559 338 583 293 583 C212 583 133 506 116 410 L74 172 C58 77 110 0 191 0 C235 0 280 23 316 62 L270 98 C250 76 226 62 202 62 C157 62 127 113 138 172 L180 410 C191 470 238 520 282 520 L282 520 Z M227 -8 L164 -8 C156 -54 172 -79 182 -95 C187 -103 191 -109 191 -112 C188 -122 162 -133 131 -133 L120 -196 C190 -196 244 -162 253 -112 C257 -86 247 -70 239 -56 C230 -42 222 -31 227 -8 L227 -8 Z " />
<glyph glyph-name="egrave" unicode="&#xe8;" horiz-adv-x="391" d="M292 583 C211 583 132 504 114 408 L73 175 C57 79 109 0 190 0 C271 0 351 79 367 175 L304 175 C293 115 246 65 201 65 C156 65 126 115 137 175 L157 290 L388 290 L408 408 C426 504 373 583 292 583 L292 583 Z M336 354 L169 354 L178 408 C189 468 237 518 281 518 C327 518 355 468 345 408 L336 354 L336 354 Z M296 773 L306 684 L348 684 L348 773 L296 773 L296 773 Z " />
<glyph glyph-name="eacute" unicode="&#xe9;" horiz-adv-x="391" d="M292 583 C211 583 132 504 114 408 L73 175 C57 79 109 0 190 0 C271 0 351 79 367 175 L304 175 C293 115 246 65 201 65 C156 65 126 115 137 175 L157 290 L388 290 L408 408 C426 504 373 583 292 583 L292 583 Z M336 354 L169 354 L178 408 C189 468 237 518 281 518 C327 518 355 468 345 408 L336 354 L336 354 Z M280 684 L322 684 L364 773 L311 773 L280 684 L280 684 Z " />
<glyph glyph-name="ecircumflex" unicode="&#xea;" horiz-adv-x="391" d="M292 583 C211 583 132 504 114 408 L73 175 C57 79 109 0 190 0 C271 0 351 79 367 175 L304 175 C293 115 246 65 201 65 C156 65 126 115 137 175 L157 290 L388 290 L408 408 C426 504 373 583 292 583 L292 583 Z M336 354 L169 354 L178 408 C189 468 237 518 281 518 C327 518 355 468 345 408 L336 354 L336 354 Z M145 682 L178 634 L326 739 L431 630 L479 678 L341 821 L145 682 Z " />
<glyph glyph-name="edieresis" unicode="&#xeb;" horiz-adv-x="391" d="M292 583 C211 583 132 504 114 408 L73 175 C57 79 109 0 190 0 C271 0 351 79 367 175 L304 175 C293 115 246 65 201 65 C156 65 126 115 137 175 L157 290 L388 290 L408 408 C426 504 373 583 292 583 L292 583 Z M336 354 L169 354 L178 408 C189 468 237 518 281 518 C327 518 355 468 345 408 L336 354 L336 354 Z M319 652 L378 652 L389 712 L330 712 L319 652 L319 652 Z M225 652 L284 652 L295 712 L236 712 L225 652 L225 652 Z " />
<glyph glyph-name="igrave" unicode="&#xec;" horiz-adv-x="220" d="M62 0 L126 0 L228 583 L164 583 L62 0 L62 0 Z M212 773 L222 684 L264 684 L264 773 L212 773 L212 773 Z " />
<glyph glyph-name="iacute" unicode="&#xed;" horiz-adv-x="220" d="M62 0 L126 0 L228 583 L164 583 L62 0 L62 0 Z M196 684 L238 684 L280 773 L227 773 L196 684 L196 684 Z " />
<glyph glyph-name="icircumflex" unicode="&#xee;" horiz-adv-x="220" d="M62 0 L126 0 L228 583 L164 583 L62 0 L62 0 Z M52 719 L85 671 L233 776 L338 667 L386 715 L248 858 L52 719 Z " />
<glyph glyph-name="idieresis" unicode="&#xef;" horiz-adv-x="212" d="M62 0 L126 0 L228 583 L164 583 L62 0 L62 0 Z M233 701 L292 701 L303 761 L244 761 L233 701 L233 701 Z M139 701 L198 701 L209 761 L150 761 L139 701 L139 701 Z " />
<glyph glyph-name="eth" unicode="&#xf0;" horiz-adv-x="402" d="M368 774 L383 857 L319 857 L305 773 C233 757 169 690 155 610 L218 610 C227 654 257 691 293 707 L276 608 L340 608 L358 708 C391 695 410 655 402 610 L380 484 C358 504 328 516 293 516 C208 516 125 442 109 349 L78 175 C78 173 77 169 77 167 L77 167 C60 74 118 0 203 0 C288 0 370 74 386 167 L388 175 L419 349 L464 610 C479 691 437 760 368 774 L368 774 Z M173 349 C182 407 232 454 282 454 C332 454 366 407 356 349 L325 175 C316 118 265 72 215 72 C164 72 132 118 142 175 L173 349 L173 349 Z " />
<glyph glyph-name="ntilde" unicode="&#xf1;" horiz-adv-x="396" d="M292 583 C261 583 231 572 204 553 L209 583 L145 583 L117 416 L43 0 L107 0 L180 416 C190 473 237 521 281 521 C327 521 357 473 347 416 L274 0 L337 0 L411 416 C426 509 373 583 292 583 L292 583 Z M295 685 C339 654 399 612 528 721 L492 766 C404 691 379 710 338 738 C315 754 289 773 252 773 C216 773 170 756 108 703 L145 659 C185 692 217 709 241 709 C241 709 241 709 241 709 C260 709 277 698 295 685 L295 685 Z " />
<glyph glyph-name="ograve" unicode="&#xf2;" horiz-adv-x="391" d="M295 583 C214 583 135 509 120 418 L75 166 C58 74 112 0 193 0 C274 0 352 74 369 166 L414 418 C429 509 376 583 295 583 L295 583 Z M306 166 C296 110 249 62 204 62 C159 62 129 110 139 166 L183 418 C193 473 240 521 284 521 C330 521 360 473 350 418 L306 166 L306 166 Z M296 773 L306 684 L348 684 L348 773 L296 773 L296 773 Z " />
<glyph glyph-name="oacute" unicode="&#xf3;" horiz-adv-x="391" d="M295 583 C214 583 135 509 120 418 L75 166 C58 74 112 0 193 0 C274 0 352 74 369 166 L414 418 C429 509 376 583 295 583 L295 583 Z M306 166 C296 110 249 62 204 62 C159 62 129 110 139 166 L183 418 C193 473 240 521 284 521 C330 521 360 473 350 418 L306 166 L306 166 Z M280 684 L322 684 L364 773 L311 773 L280 684 L280 684 Z " />
<glyph glyph-name="ocircumflex" unicode="&#xf4;" horiz-adv-x="391" d="M295 583 C214 583 135 509 120 418 L75 166 C58 74 112 0 193 0 C274 0 352 74 369 166 L414 418 C429 509 376 583 295 583 L295 583 Z M306 166 C296 110 249 62 204 62 C159 62 129 110 139 166 L183 418 C193 473 240 521 284 521 C330 521 360 473 350 418 L306 166 L306 166 Z M145 682 L178 634 L326 739 L431 630 L479 678 L341 821 L145 682 Z " />
<glyph glyph-name="otilde" unicode="&#xf5;" horiz-adv-x="391" d="M295 583 C214 583 135 509 120 418 L75 166 C58 74 112 0 193 0 C274 0 352 74 369 166 L414 418 C429 509 376 583 295 583 L295 583 Z M306 166 C296 110 249 62 204 62 C159 62 129 110 139 166 L183 418 C193 473 240 521 284 521 C330 521 360 473 350 418 L306 166 L306 166 Z M292 685 C336 654 396 612 525 721 L489 766 C401 691 376 710 335 738 C312 754 286 773 249 773 C213 773 167 756 105 703 L142 659 C182 692 214 709 238 709 C238 709 238 709 238 709 C257 709 274 698 292 685 L292 685 Z " />
<glyph glyph-name="odieresis" unicode="&#xf6;" horiz-adv-x="391" d="M295 583 C214 583 135 509 120 418 L75 166 C58 74 112 0 193 0 C274 0 352 74 369 166 L414 418 C429 509 376 583 295 583 L295 583 Z M306 166 C296 110 249 62 204 62 C159 62 129 110 139 166 L183 418 C193 473 240 521 284 521 C330 521 360 473 350 418 L306 166 L306 166 Z M313 701 L372 701 L383 761 L324 761 L313 701 L313 701 Z M219 701 L278 701 L289 761 L230 761 L219 701 L219 701 Z " />
<glyph glyph-name="divide" unicode="&#xf7;" horiz-adv-x="415" d="M289 454 C308 454 326 469 330 490 C334 509 322 524 302 524 C283 524 264 509 260 490 C257 469 270 454 289 454 L289 454 Z M258 275 C239 275 221 259 217 240 C214 221 227 205 246 205 C265 205 283 221 287 240 C290 259 277 275 258 275 L258 275 Z M106 329 L430 329 L440 391 L116 391 L106 329 L106 329 Z " />
<glyph glyph-name="oslash" unicode="&#xf8;" horiz-adv-x="390" d="M416 571 L360 590 L332 533 C319 538 305 541 289 541 C209 541 130 467 114 374 L74 156 C67 114 76 76 92 46 L44 -50 L101 -70 L137 2 C154 -6 172 -11 192 -11 C274 -11 353 64 368 156 L408 374 C416 422 404 467 380 497 L416 571 L416 571 Z M138 156 L178 374 C187 431 234 478 278 478 C288 478 296 476 302 473 L136 134 C136 142 137 149 138 156 L138 156 Z M344 374 L305 156 C295 100 248 53 203 53 C190 53 178 56 168 64 L343 420 C346 407 347 391 344 374 L344 374 Z " />
<glyph glyph-name="ugrave" unicode="&#xf9;" horiz-adv-x="391" d="M389 551 L322 167 C312 110 265 64 220 64 C175 64 145 110 155 167 L228 583 L164 583 L91 167 C76 76 128 0 209 0 C240 0 270 12 298 30 L293 0 L356 0 L385 167 L452 551 L458 583 L395 583 L389 551 L389 551 Z M296 773 L306 684 L348 684 L348 773 L296 773 L296 773 Z " />
<glyph glyph-name="uacute" unicode="&#xfa;" horiz-adv-x="391" d="M389 551 L322 167 C312 110 265 64 220 64 C175 64 145 110 155 167 L228 583 L164 583 L91 167 C76 76 128 0 209 0 C240 0 270 12 298 30 L293 0 L356 0 L385 167 L452 551 L458 583 L395 583 L389 551 L389 551 Z M280 684 L322 684 L364 773 L311 773 L280 684 L280 684 Z " />
<glyph glyph-name="ucircumflex" unicode="&#xfb;" horiz-adv-x="391" d="M389 551 L322 167 C312 110 265 64 220 64 C175 64 145 110 155 167 L228 583 L164 583 L91 167 C76 76 128 0 209 0 C240 0 270 12 298 30 L293 0 L356 0 L385 167 L452 551 L458 583 L395 583 L389 551 L389 551 Z M145 682 L178 634 L326 739 L431 630 L479 678 L341 821 L145 682 Z " />
<glyph glyph-name="udieresis" unicode="&#xfc;" horiz-adv-x="391" d="M389 551 L322 167 C312 110 265 64 220 64 C175 64 145 110 155 167 L228 583 L164 583 L91 167 C76 76 128 0 209 0 C240 0 270 12 298 30 L293 0 L356 0 L385 167 L452 551 L458 583 L395 583 L389 551 L389 551 Z M313 701 L372 701 L383 761 L324 761 L313 701 L313 701 Z M219 701 L278 701 L289 761 L230 761 L219 701 L219 701 Z " />
<glyph glyph-name="yacute" unicode="&#xfd;" horiz-adv-x="398" d="M292 167 C282 110 235 62 190 62 C145 62 115 110 125 167 L198 583 L134 583 L61 167 C44 74 98 0 179 0 C210 0 240 11 268 30 L263 0 C252 -59 205 -108 160 -108 C138 -108 124 -97 115 -88 L64 -134 C85 -158 115 -172 148 -172 C229 -172 310 -95 326 0 L355 167 L428 583 L365 583 L292 167 Z M283 684 L325 684 L367 773 L314 773 L283 684 L283 684 Z " />
<glyph glyph-name="thorn" unicode="&#xfe;" horiz-adv-x="406" d="M311 582 C280 582 248 571 223 552 L250 703 L186 703 L136 415 L91 167 L32 -169 L96 -169 L131 30 C150 11 178 0 209 0 C290 0 371 85 388 178 L430 415 C445 508 392 582 311 582 L311 582 Z M322 167 C312 110 265 62 220 62 C175 62 145 110 155 167 L199 415 C209 472 256 518 300 518 C346 518 376 472 366 415 L322 167 Z " />
<glyph glyph-name="ydieresis" unicode="&#xff;" horiz-adv-x="398" d="M292 167 C282 110 235 62 190 62 C145 62 115 110 125 167 L198 583 L134 583 L61 167 C44 74 98 0 179 0 C210 0 240 11 268 30 L263 0 C252 -59 205 -108 160 -108 C138 -108 124 -97 115 -88 L64 -134 C85 -158 115 -172 148 -172 C229 -172 310 -95 326 0 L355 167 L428 583 L365 583 L292 167 Z M316 701 L375 701 L386 761 L327 761 L316 701 L316 701 Z M222 701 L281 701 L292 761 L233 761 L222 701 L222 701 Z " />
<glyph glyph-name="Amacron" unicode="&#x100;" horiz-adv-x="458" d="M328 811 L29 0 L93 0 L179 232 L337 232 L341 0 L405 0 L395 811 L328 811 L328 811 Z M202 294 L333 649 L336 294 L202 294 L202 294 Z M397 981 L288 1030 L254 973 L385 913 L541 975 L525 1033 L397 981 L397 981 Z " />
<glyph glyph-name="amacron" unicode="&#x101;" horiz-adv-x="400" d="M323 583 L317 583 L317 583 C251 581 187 526 175 460 L239 460 C245 492 276 518 310 520 C342 518 362 490 356 454 L342 373 C322 394 294 406 262 406 C181 406 102 330 86 239 L73 168 C58 76 110 0 191 0 C223 0 254 12 282 31 L277 0 L340 0 L420 454 C432 523 389 580 323 583 L323 583 Z M304 168 C294 112 247 64 202 64 C157 64 127 112 137 168 L150 239 C160 295 206 342 251 342 C296 342 326 295 317 239 L304 168 L304 168 Z M347 757 L238 806 L204 749 L335 689 L491 751 L475 809 L347 757 L347 757 Z " />
<glyph glyph-name="Abreve" unicode="&#x102;" horiz-adv-x="458" d="M328 811 L29 0 L93 0 L179 232 L337 232 L341 0 L405 0 L395 811 L328 811 L328 811 Z M202 294 L333 649 L336 294 L202 294 L202 294 Z M391 930 C347 930 317 976 326 1033 L263 1033 C247 940 300 866 380 866 C462 866 541 940 557 1033 L493 1033 C483 976 437 930 391 930 L391 930 Z " />
<glyph glyph-name="abreve" unicode="&#x103;" horiz-adv-x="400" d="M323 583 L317 583 L317 583 C251 581 187 526 175 460 L239 460 C245 492 276 518 310 520 C342 518 362 490 356 454 L342 373 C322 394 294 406 262 406 C181 406 102 330 86 239 L73 168 C58 76 110 0 191 0 C223 0 254 12 282 31 L277 0 L340 0 L420 454 C432 523 389 580 323 583 L323 583 Z M304 168 C294 112 247 64 202 64 C157 64 127 112 137 168 L150 239 C160 295 206 342 251 342 C296 342 326 295 317 239 L304 168 L304 168 Z M323 706 C279 706 249 752 258 809 L195 809 C179 716 232 642 312 642 C394 642 473 716 489 809 L425 809 C415 752 369 706 323 706 L323 706 Z " />
<glyph glyph-name="Aogonek" unicode="&#x104;" horiz-adv-x="458" d="M328 811 L29 0 L93 0 L179 232 L337 232 L341 0 L405 0 L395 811 L328 811 L328 811 Z M202 294 L333 649 L336 294 L202 294 L202 294 Z M344 -132 C344 -129 349 -123 356 -115 C372 -99 397 -74 405 -28 L343 -28 C338 -51 329 -62 314 -76 C301 -90 284 -106 281 -132 C271 -182 313 -216 383 -216 L393 -153 C362 -153 342 -142 344 -132 L344 -132 Z " />
<glyph glyph-name="aogonek" unicode="&#x105;" horiz-adv-x="400" d="M323 583 L317 583 L317 583 C251 581 187 526 175 460 L239 460 C245 492 276 518 310 520 C342 518 362 490 356 454 L342 373 C322 394 294 406 262 406 C181 406 102 330 86 239 L73 168 C58 76 110 0 191 0 C223 0 254 12 282 31 L277 0 L340 0 L420 454 C432 523 389 580 323 583 L323 583 Z M304 168 C294 112 247 64 202 64 C157 64 127 112 137 168 L150 239 C160 295 206 342 251 342 C296 342 326 295 317 239 L304 168 L304 168 Z M277 -131 C277 -128 282 -122 289 -114 C305 -98 330 -73 338 -27 L276 -27 C271 -50 262 -61 247 -75 C234 -89 217 -105 214 -131 C204 -181 246 -215 316 -215 L326 -152 C295 -152 275 -141 277 -131 L277 -131 Z " />
<glyph glyph-name="Cacute" unicode="&#x106;" horiz-adv-x="437" d="M328 749 L336 749 C364 749 387 738 403 718 C413 704 420 688 421 670 L485 686 C483 715 472 740 455 762 C430 794 391 811 347 811 L339 811 C246 811 157 734 141 640 L59 173 C42 78 103 0 196 0 L204 0 C275 0 345 47 381 114 L324 136 C303 92 258 64 215 64 L207 64 C149 64 112 113 123 173 L204 640 C215 700 270 749 328 749 L328 749 Z M341 908 L383 908 L425 997 L372 997 L341 908 L341 908 Z " />
<glyph glyph-name="cacute" unicode="&#x107;" horiz-adv-x="352" d="M282 520 C306 520 326 506 337 482 L397 518 C376 559 338 583 293 583 C212 583 133 506 116 410 L74 172 C58 77 110 0 191 0 C235 0 280 23 316 62 L270 98 C250 76 226 62 202 62 C157 62 127 113 138 172 L180 410 C191 470 238 520 282 520 L282 520 Z M260 684 L302 684 L344 773 L291 773 L260 684 L260 684 Z " />
<glyph glyph-name="Ccircumflex" unicode="&#x108;" horiz-adv-x="437" d="M328 749 L336 749 C364 749 387 738 403 718 C413 704 420 688 421 670 L485 686 C483 715 472 740 455 762 C430 794 391 811 347 811 L339 811 C246 811 157 734 141 640 L59 173 C42 78 103 0 196 0 L204 0 C275 0 345 47 381 114 L324 136 C303 92 258 64 215 64 L207 64 C149 64 112 113 123 173 L204 640 C215 700 270 749 328 749 L328 749 Z M205 906 L238 858 L386 963 L491 854 L539 902 L401 1045 L205 906 Z " />
<glyph glyph-name="ccircumflex" unicode="&#x109;" horiz-adv-x="352" d="M282 520 C306 520 326 506 337 482 L397 518 C376 559 338 583 293 583 C212 583 133 506 116 410 L74 172 C58 77 110 0 191 0 C235 0 280 23 316 62 L270 98 C250 76 226 62 202 62 C157 62 127 113 138 172 L180 410 C191 470 238 520 282 520 L282 520 Z M126 682 L159 634 L307 739 L412 630 L460 678 L322 821 L126 682 Z " />
<glyph glyph-name="Cdotaccent" unicode="&#x10a;" horiz-adv-x="437" d="M328 749 L336 749 C364 749 387 738 403 718 C413 704 420 688 421 670 L485 686 C483 715 472 740 455 762 C430 794 391 811 347 811 L339 811 C246 811 157 734 141 640 L59 173 C42 78 103 0 196 0 L204 0 C275 0 345 47 381 114 L324 136 C303 92 258 64 215 64 L207 64 C149 64 112 113 123 173 L204 640 C215 700 270 749 328 749 L328 749 Z M384 963 C404 963 422 979 425 998 C429 1017 416 1033 396 1033 C377 1033 359 1017 356 998 C352 979 365 963 384 963 L384 963 Z " />
<glyph glyph-name="cdotaccent" unicode="&#x10b;" horiz-adv-x="352" d="M282 520 C306 520 326 506 337 482 L397 518 C376 559 338 583 293 583 C212 583 133 506 116 410 L74 172 C58 77 110 0 191 0 C235 0 280 23 316 62 L270 98 C250 76 226 62 202 62 C157 62 127 113 138 172 L180 410 C191 470 238 520 282 520 L282 520 Z M303 739 C323 739 341 755 344 774 C348 793 335 809 315 809 C296 809 278 793 275 774 C271 755 284 739 303 739 L303 739 Z " />
<glyph glyph-name="Ccaron" unicode="&#x10c;" horiz-adv-x="437" d="M328 749 L336 749 C364 749 387 738 403 718 C413 704 420 688 421 670 L485 686 C483 715 472 740 455 762 C430 794 391 811 347 811 L339 811 C246 811 157 734 141 640 L59 173 C42 78 103 0 196 0 L204 0 C275 0 345 47 381 114 L324 136 C303 92 258 64 215 64 L207 64 C149 64 112 113 123 173 L204 640 C215 700 270 749 328 749 L328 749 Z M397 981 L288 1030 L254 973 L385 913 L541 975 L525 1033 L397 981 L397 981 Z " />
<glyph glyph-name="ccaron" unicode="&#x10d;" horiz-adv-x="352" d="M282 520 C306 520 326 506 337 482 L397 518 C376 559 338 583 293 583 C212 583 133 506 116 410 L74 172 C58 77 110 0 191 0 C235 0 280 23 316 62 L270 98 C250 76 226 62 202 62 C157 62 127 113 138 172 L180 410 C191 470 238 520 282 520 L282 520 Z M318 757 L209 806 L175 749 L306 689 L462 751 L446 809 L318 757 L318 757 Z " />
<glyph glyph-name="Dcaron" unicode="&#x10e;" horiz-adv-x="422" d="M354 811 L189 811 L46 0 L214 0 C300 0 383 74 400 166 L485 648 C501 738 442 811 354 811 L354 811 Z M336 166 C327 109 276 64 225 64 L120 64 L241 749 L343 749 C396 749 431 703 421 648 L336 166 L336 166 Z M390 981 L281 1030 L247 973 L378 913 L534 975 L518 1033 L390 981 L390 981 Z " />
<glyph glyph-name="dcaron" unicode="&#x10f;" horiz-adv-x="520" d="M378 551 C357 571 329 583 297 583 C216 583 137 506 120 413 L78 170 C61 77 114 0 195 0 C227 0 258 12 287 32 L282 0 L345 0 L487 811 L425 811 L378 551 L378 551 Z M309 170 C298 113 251 65 205 65 C161 65 131 113 142 170 L184 413 C195 470 241 518 286 518 C331 518 361 470 351 413 L309 170 L309 170 Z M557 730 L553 709 C605 709 611 754 611 754 L620 809 L562 809 L552 754 L578 754 L578 754 C575 728 557 730 557 730 L557 730 Z " />
<glyph glyph-name="Dcroat" unicode="&#x110;" horiz-adv-x="466" d="M372 808 L270 808 L206 808 L140 433 L96 433 L85 371 L130 371 L65 0 L76 0 L128 0 L233 0 C319 0 402 74 419 166 L503 644 C518 734 460 808 372 808 L372 808 Z M355 166 C346 109 295 64 244 64 L139 64 L193 371 L330 371 L341 433 L204 433 L259 745 L361 745 C414 745 449 700 439 644 L355 166 Z " />
<glyph glyph-name="dcroat" unicode="&#x111;" horiz-adv-x="421" d="M378 551 C357 571 329 583 297 583 C216 583 137 506 120 413 L78 170 C61 77 114 0 195 0 C227 0 258 12 287 32 L282 0 L345 0 L487 811 L425 811 L378 551 L378 551 Z M309 170 C298 113 251 65 205 65 C161 65 131 113 142 170 L184 413 C195 470 241 518 286 518 C331 518 361 470 351 413 L309 170 L309 170 Z M278 638 L461 638 L468 704 L285 704 L278 638 L278 638 Z " />
<glyph glyph-name="Emacron" unicode="&#x112;" horiz-adv-x="359" d="M34 0 L291 0 L301 62 L108 62 L156 338 L287 338 L298 401 L167 401 L228 748 L421 748 L433 811 L177 811 L34 0 L34 0 Z M327 926 L218 975 L184 918 L315 858 L471 920 L455 978 L327 926 L327 926 Z " />
<glyph glyph-name="emacron" unicode="&#x113;" horiz-adv-x="391" d="M292 583 C211 583 132 504 114 408 L73 175 C57 79 109 0 190 0 C271 0 351 79 367 175 L304 175 C293 115 246 65 201 65 C156 65 126 115 137 175 L157 290 L388 290 L408 408 C426 504 373 583 292 583 L292 583 Z M336 354 L169 354 L178 408 C189 468 237 518 281 518 C327 518 355 468 345 408 L336 354 L336 354 Z M323 757 L214 806 L180 749 L311 689 L467 751 L451 809 L323 757 L323 757 Z " />
<glyph glyph-name="Edotaccent" unicode="&#x116;" horiz-adv-x="359" d="M34 0 L291 0 L301 62 L108 62 L156 338 L287 338 L298 401 L167 401 L228 748 L421 748 L433 811 L177 811 L34 0 L34 0 Z M345 963 C365 963 383 979 386 998 C390 1017 377 1033 357 1033 C338 1033 320 1017 317 998 C313 979 326 963 345 963 L345 963 Z " />
<glyph glyph-name="edotaccent" unicode="&#x117;" horiz-adv-x="391" d="M292 583 C211 583 132 504 114 408 L73 175 C57 79 109 0 190 0 C271 0 351 79 367 175 L304 175 C293 115 246 65 201 65 C156 65 126 115 137 175 L157 290 L388 290 L408 408 C426 504 373 583 292 583 L292 583 Z M336 354 L169 354 L178 408 C189 468 237 518 281 518 C327 518 355 468 345 408 L336 354 L336 354 Z M322 739 C342 739 360 755 363 774 C367 793 354 809 334 809 C315 809 297 793 294 774 C290 755 303 739 322 739 L322 739 Z " />
<glyph glyph-name="Eogonek" unicode="&#x118;" horiz-adv-x="359" d="M34 0 L291 0 L301 62 L108 62 L156 338 L287 338 L298 401 L167 401 L228 748 L421 748 L433 811 L177 811 L34 0 L34 0 Z M152 -132 C152 -129 157 -123 164 -115 C180 -99 205 -74 213 -28 L151 -28 C146 -51 137 -62 122 -76 C109 -90 92 -106 89 -132 C79 -182 121 -216 191 -216 L201 -153 C170 -153 150 -142 152 -132 L152 -132 Z " />
<glyph glyph-name="eogonek" unicode="&#x119;" horiz-adv-x="391" d="M156 -82 C156 -79 161 -73 168 -65 C184 -49 209 -24 217 22 L155 22 C150 -1 140 -12 126 -26 C113 -40 96 -56 92 -82 C83 -132 125 -166 194 -166 L205 -103 C174 -103 154 -92 156 -82 L156 -82 Z M292 583 C211 583 132 504 114 408 L73 175 C57 79 109 0 190 0 C271 0 351 79 367 175 L304 175 C293 115 246 65 201 65 C156 65 126 115 137 175 L157 290 L388 290 L408 408 C426 504 373 583 292 583 L292 583 Z M336 354 L169 354 L178 408 C189 468 237 518 281 518 C327 518 355 468 345 408 L336 354 L336 354 Z " />
<glyph glyph-name="Ecaron" unicode="&#x11a;" horiz-adv-x="359" d="M34 0 L291 0 L301 62 L108 62 L156 338 L287 338 L298 401 L167 401 L228 748 L421 748 L433 811 L177 811 L34 0 L34 0 Z M360 981 L251 1030 L217 973 L348 913 L504 975 L488 1033 L360 981 L360 981 Z " />
<glyph glyph-name="ecaron" unicode="&#x11b;" horiz-adv-x="391" d="M292 583 C211 583 132 504 114 408 L73 175 C57 79 109 0 190 0 C271 0 351 79 367 175 L304 175 C293 115 246 65 201 65 C156 65 126 115 137 175 L157 290 L388 290 L408 408 C426 504 373 583 292 583 L292 583 Z M336 354 L169 354 L178 408 C189 468 237 518 281 518 C327 518 355 468 345 408 L336 354 L336 354 Z M336 757 L227 806 L193 749 L324 689 L480 751 L464 809 L336 757 L336 757 Z " />
<glyph glyph-name="Gcircumflex" unicode="&#x11c;" horiz-adv-x="440" d="M241 337 L367 337 L339 172 C328 112 273 64 215 64 L207 64 C149 64 112 112 123 172 L204 640 C215 700 270 749 328 749 L336 749 C364 749 387 737 403 718 C413 704 420 688 421 670 L485 686 C483 715 472 740 455 761 C430 793 391 811 347 811 L339 811 C246 811 157 734 141 640 L59 172 C42 77 103 0 196 0 L204 0 C297 0 384 77 401 172 L441 401 L252 401 L241 337 L241 337 Z M207 906 L240 858 L388 963 L493 854 L541 902 L403 1045 L207 906 Z " />
<glyph glyph-name="gcircumflex" unicode="&#x11d;" horiz-adv-x="402" d="M371 553 C351 572 323 583 292 583 C211 583 132 509 117 418 L72 167 C57 76 109 0 190 0 C221 0 251 12 279 30 L271 -7 C262 -66 215 -115 169 -115 C148 -115 133 -104 125 -95 L73 -140 C95 -164 125 -178 157 -178 C239 -178 319 -101 335 -7 L366 167 L411 418 L439 583 L376 583 L371 553 L371 553 Z M303 167 C293 110 246 64 201 64 C156 64 126 110 136 167 L180 418 C190 473 237 521 281 521 C327 521 357 473 347 418 L303 167 L303 167 Z M150 682 L183 634 L331 739 L436 630 L484 678 L346 821 L150 682 Z " />
<glyph glyph-name="Gbreve" unicode="&#x11e;" horiz-adv-x="440" d="M241 337 L367 337 L339 172 C328 112 273 64 215 64 L207 64 C149 64 112 112 123 172 L204 640 C215 700 270 749 328 749 L336 749 C364 749 387 737 403 718 C413 704 420 688 421 670 L485 686 C483 715 472 740 455 761 C430 793 391 811 347 811 L339 811 C246 811 157 734 141 640 L59 172 C42 77 103 0 196 0 L204 0 C297 0 384 77 401 172 L441 401 L252 401 L241 337 L241 337 Z M383 930 C339 930 309 976 318 1033 L255 1033 C239 940 292 866 372 866 C454 866 533 940 549 1033 L485 1033 C475 976 429 930 383 930 L383 930 Z " />
<glyph glyph-name="gbreve" unicode="&#x11f;" horiz-adv-x="402" d="M371 553 C351 572 323 583 292 583 C211 583 132 509 117 418 L72 167 C57 76 109 0 190 0 C221 0 251 12 279 30 L271 -7 C262 -66 215 -115 169 -115 C148 -115 133 -104 125 -95 L73 -140 C95 -164 125 -178 157 -178 C239 -178 319 -101 335 -7 L366 167 L411 418 L439 583 L376 583 L371 553 L371 553 Z M303 167 C293 110 246 64 201 64 C156 64 126 110 136 167 L180 418 C190 473 237 521 281 521 C327 521 357 473 347 418 L303 167 L303 167 Z M324 706 C280 706 250 752 259 809 L196 809 C180 716 233 642 313 642 C395 642 474 716 490 809 L426 809 C416 752 370 706 324 706 L324 706 Z " />
<glyph glyph-name="Gdotaccent" unicode="&#x120;" horiz-adv-x="440" d="M241 337 L367 337 L339 172 C328 112 273 64 215 64 L207 64 C149 64 112 112 123 172 L204 640 C215 700 270 749 328 749 L336 749 C364 749 387 737 403 718 C413 704 420 688 421 670 L485 686 C483 715 472 740 455 761 C430 793 391 811 347 811 L339 811 C246 811 157 734 141 640 L59 172 C42 77 103 0 196 0 L204 0 C297 0 384 77 401 172 L441 401 L252 401 L241 337 L241 337 Z M386 963 C406 963 424 979 427 998 C431 1017 418 1033 398 1033 C379 1033 361 1017 358 998 C354 979 367 963 386 963 L386 963 Z " />
<glyph glyph-name="gdotaccent" unicode="&#x121;" horiz-adv-x="402" d="M371 553 C351 572 323 583 292 583 C211 583 132 509 117 418 L72 167 C57 76 109 0 190 0 C221 0 251 12 279 30 L271 -7 C262 -66 215 -115 169 -115 C148 -115 133 -104 125 -95 L73 -140 C95 -164 125 -178 157 -178 C239 -178 319 -101 335 -7 L366 167 L411 418 L439 583 L376 583 L371 553 L371 553 Z M303 167 C293 110 246 64 201 64 C156 64 126 110 136 167 L180 418 C190 473 237 521 281 521 C327 521 357 473 347 418 L303 167 L303 167 Z M328 739 C348 739 366 755 369 774 C373 793 360 809 340 809 C321 809 303 793 300 774 C296 755 309 739 328 739 L328 739 Z " />
<glyph glyph-name="Gcommaaccent" unicode="&#x122;" horiz-adv-x="440" d="M241 337 L367 337 L339 172 C328 112 273 64 215 64 L207 64 C149 64 112 112 123 172 L204 640 C215 700 270 749 328 749 L336 749 C364 749 387 737 403 718 C413 704 420 688 421 670 L485 686 C483 715 472 740 455 761 C430 793 391 811 347 811 L339 811 C246 811 157 734 141 640 L59 172 C42 77 103 0 196 0 L204 0 C297 0 384 77 401 172 L441 401 L252 401 L241 337 L241 337 Z M223 -43 L164 -43 L155 -98 L181 -98 L181 -98 C178 -123 160 -121 160 -121 L156 -143 C208 -143 214 -98 214 -98 L223 -43 L223 -43 Z " />
<glyph glyph-name="gcommaaccent" unicode="&#x123;" horiz-adv-x="390" d="M371 553 C351 572 323 583 292 583 C211 583 132 509 117 418 L72 167 C57 76 109 0 190 0 C221 0 251 12 279 30 L271 -7 C262 -66 215 -115 169 -115 C148 -115 133 -104 125 -95 L73 -140 C95 -164 125 -178 157 -178 C239 -178 319 -101 335 -7 L366 167 L411 418 L439 583 L376 583 L371 553 L371 553 Z M303 167 C293 110 246 64 201 64 C156 64 126 110 136 167 L180 418 C190 473 237 521 281 521 C327 521 357 473 347 418 L303 167 L303 167 Z M325 750 L316 695 L375 695 L384 750 L358 750 L358 750 C363 776 379 774 379 774 L383 795 C331 795 325 750 325 750 L325 750 Z " />
<glyph glyph-name="Hcircumflex" unicode="&#x124;" horiz-adv-x="430" d="M382 401 L179 401 L252 811 L189 811 L46 0 L109 0 L168 338 L371 338 L312 0 L376 0 L519 811 L455 811 L382 401 L382 401 Z M203 906 L236 858 L384 963 L489 854 L537 902 L399 1045 L203 906 Z " />
<glyph glyph-name="hcircumflex" unicode="&#x125;" horiz-adv-x="391" d="M295 583 C264 583 234 572 207 553 L253 811 L189 811 L46 0 L110 0 L183 416 C193 473 240 521 284 521 C330 521 360 473 350 416 L277 0 L340 0 L414 416 C429 509 376 583 295 583 L295 583 Z M181 892 L214 844 L362 949 L467 840 L515 888 L377 1031 L181 892 Z " />
<glyph glyph-name="Hbar" unicode="&#x126;" horiz-adv-x="578" d="M128 509 L618 509 L631 580 L142 580 L128 509 Z M457 401 L254 401 L327 811 L264 811 L121 0 L184 0 L243 338 L446 338 L387 0 L451 0 L594 811 L530 811 L457 401 L457 401 Z " />
<glyph glyph-name="hbar" unicode="&#x127;" horiz-adv-x="391" d="M295 583 C264 583 234 572 207 553 L253 811 L189 811 L46 0 L110 0 L183 416 C193 473 240 521 284 521 C330 521 360 473 350 416 L277 0 L340 0 L414 416 C429 509 376 583 295 583 L295 583 Z M97 648 L402 648 L413 710 L108 710 L97 648 L97 648 Z " />
<glyph glyph-name="Itilde" unicode="&#x128;" horiz-adv-x="169" d="M43 0 L107 0 L250 811 L186 811 L43 0 L43 0 Z M220 909 C264 878 324 836 453 945 L417 990 C329 915 304 934 263 962 C240 978 214 997 177 997 C141 997 95 980 33 927 L70 883 C110 916 142 933 166 933 C166 933 166 933 166 933 C185 933 202 922 220 909 L220 909 Z " />
<glyph glyph-name="itilde" unicode="&#x129;" horiz-adv-x="220" d="M62 0 L126 0 L228 583 L164 583 L62 0 L62 0 Z M186 728 C230 697 290 655 419 764 L383 809 C295 734 270 753 229 781 C206 797 180 816 143 816 C107 816 61 799 -1 746 L36 702 C76 735 108 752 132 752 C132 752 132 752 132 752 C151 752 168 741 186 728 L186 728 Z " />
<glyph glyph-name="imacron" unicode="&#x12b;" horiz-adv-x="220" d="M62 0 L126 0 L228 583 L164 583 L62 0 L62 0 Z M203 757 L94 806 L60 749 L191 689 L347 751 L331 809 L203 757 L203 757 Z " />
<glyph glyph-name="Iogonek" unicode="&#x12e;" horiz-adv-x="169" d="M43 0 L107 0 L250 811 L186 811 L43 0 L43 0 Z M45 -132 C45 -129 50 -123 57 -115 C73 -99 98 -74 106 -28 L44 -28 C39 -51 30 -62 15 -76 C2 -90 -15 -106 -18 -132 C-28 -182 14 -216 84 -216 L94 -153 C63 -153 43 -142 45 -132 L45 -132 Z " />
<glyph glyph-name="iogonek" unicode="&#x12f;" horiz-adv-x="163" d="M62 0 L126 0 L228 583 L164 583 L62 0 L62 0 Z M176 653 L240 653 L252 720 L188 720 L176 653 L176 653 Z M45 -132 C45 -129 50 -123 57 -115 C73 -99 98 -74 106 -28 L44 -28 C39 -51 30 -62 15 -76 C2 -90 -15 -106 -18 -132 C-28 -182 14 -216 84 -216 L94 -153 C63 -153 43 -142 45 -132 L45 -132 Z " />
<glyph glyph-name="Idotaccent" unicode="&#x130;" horiz-adv-x="169" d="M43 0 L107 0 L250 811 L186 811 L43 0 L43 0 Z M250 963 C270 963 288 979 291 998 C295 1017 282 1033 262 1033 C243 1033 225 1017 222 998 C218 979 231 963 250 963 L250 963 Z " />
<glyph glyph-name="dotlessi" unicode="&#x131;" horiz-adv-x="190" d="M62 0 L126 0 L228 583 L164 583 L62 0 L62 0 Z " />
<glyph glyph-name="Jcircumflex" unicode="&#x134;" horiz-adv-x="431" d="M335 173 C324 112 269 62 211 62 C154 62 117 112 127 173 L162 372 L99 372 L64 173 C47 77 108 0 201 0 C293 0 381 77 397 173 L510 811 L448 811 L335 173 L335 173 Z M343 906 L376 858 L524 963 L629 854 L677 902 L539 1045 L343 906 Z " />
<glyph glyph-name="jcircumflex" unicode="&#x135;" horiz-adv-x="174" d="M173 653 L236 653 L248 720 L185 720 L173 653 L173 653 Z M59 2 C48 -58 1 -107 -43 -107 C-65 -107 -80 -96 -88 -86 L-140 -140 C-119 -164 -88 -170 -55 -170 C25 -170 106 -92 122 2 L224 583 L161 583 L59 2 L59 2 Z M36 682 L69 634 L217 739 L322 630 L370 678 L232 821 L36 682 Z " />
<glyph glyph-name="Kcommaaccent" unicode="&#x136;" horiz-adv-x="458" d="M540 811 L465 811 L187 473 L247 811 L184 811 L41 0 L105 0 L167 359 L239 451 L324 0 L400 0 L294 514 L540 811 Z M211 -43 L152 -43 L143 -98 L169 -98 L169 -98 C166 -123 148 -121 148 -121 L144 -143 C196 -143 202 -98 202 -98 L211 -43 L211 -43 Z " />
<glyph glyph-name="kcommaaccent" unicode="&#x137;" horiz-adv-x="440" d="M397 583 L163 347 L246 811 L183 811 L40 0 L103 0 L145 242 L229 330 L293 0 L365 0 L287 385 L474 583 L397 583 L397 583 Z M211 -43 L152 -43 L143 -98 L169 -98 L169 -98 C166 -123 148 -121 148 -121 L144 -143 C196 -143 202 -98 202 -98 L211 -43 L211 -43 Z " />
<glyph glyph-name="kgreenlandic" unicode="&#x138;" horiz-adv-x="415" d="M422 583 L188 347 L230 583 L167 583 L65 0 L128 0 L170 242 L254 330 L318 1 L390 1 L312 385 L499 583 L422 583 Z " />
<glyph glyph-name="Lacute" unicode="&#x139;" horiz-adv-x="359" d="M250 811 L186 811 L43 0 L300 0 L311 64 L118 64 L250 811 L250 811 Z M224 908 L266 908 L308 997 L255 997 L224 908 L224 908 Z " />
<glyph glyph-name="lacute" unicode="&#x13a;" horiz-adv-x="163" d="M62 0 L126 0 L269 811 L205 811 L62 0 L62 0 Z M209 869 L251 869 L293 958 L240 958 L209 869 L209 869 Z " />
<glyph glyph-name="Lcommaaccent" unicode="&#x13b;" horiz-adv-x="359" d="M222 -36 L133 -36 L119 -118 L158 -118 L158 -118 C152 -156 126 -154 126 -154 L120 -186 C197 -186 208 -118 208 -118 L222 -36 Z M250 811 L186 811 L43 0 L300 0 L311 64 L118 64 L250 811 L250 811 Z " />
<glyph glyph-name="lcommaaccent" unicode="&#x13c;" horiz-adv-x="163" d="M62 0 L126 0 L269 811 L205 811 L62 0 L62 0 Z M114 -43 L55 -43 L46 -98 L72 -98 L72 -98 C69 -123 51 -121 51 -121 L47 -143 C99 -143 105 -98 105 -98 L114 -43 L114 -43 Z " />
<glyph glyph-name="Lcaron" unicode="&#x13d;" horiz-adv-x="359" d="M250 811 L186 811 L43 0 L300 0 L311 64 L118 64 L250 811 L250 811 Z M220 899 L216 878 C268 878 274 923 274 923 L283 978 L225 978 L215 923 L241 923 L241 923 C238 897 220 899 220 899 L220 899 Z " />
<glyph glyph-name="lcaron" unicode="&#x13e;" horiz-adv-x="288" d="M62 0 L126 0 L269 811 L205 811 L62 0 L62 0 Z M324 730 L320 709 C372 709 378 754 378 754 L387 809 L329 809 L319 754 L345 754 L345 754 C342 728 324 730 324 730 L324 730 Z " />
<glyph glyph-name="Lslash" unicode="&#x141;" horiz-adv-x="391" d="M137 65 L191 371 L318 371 L329 433 L202 433 L268 809 L204 809 L138 433 L108 433 L97 371 L127 371 L62 1 L319 1 L330 65 L137 65 L137 65 Z " />
<glyph glyph-name="lslash" unicode="&#x142;" horiz-adv-x="290" d="M114 0 L178 0 L321 811 L257 811 L114 0 L114 0 Z M54 363 L283 363 L289 431 L60 431 L54 363 Z " />
<glyph glyph-name="Nacute" unicode="&#x143;" horiz-adv-x="454" d="M484 811 L370 168 L258 811 L184 811 L41 0 L105 0 L219 649 L333 0 L403 0 L546 811 L484 811 L484 811 Z M350 908 L392 908 L434 997 L381 997 L350 908 L350 908 Z " />
<glyph glyph-name="nacute" unicode="&#x144;" horiz-adv-x="396" d="M292 583 C261 583 231 572 204 553 L209 583 L145 583 L117 416 L43 0 L107 0 L180 416 C190 473 237 521 281 521 C327 521 357 473 347 416 L274 0 L337 0 L411 416 C426 509 373 583 292 583 L292 583 Z M282 684 L324 684 L366 773 L313 773 L282 684 L282 684 Z " />
<glyph glyph-name="Ncommaaccent" unicode="&#x145;" horiz-adv-x="454" d="M484 811 L370 168 L258 811 L184 811 L41 0 L105 0 L219 649 L333 0 L403 0 L546 811 L484 811 L484 811 Z M247 -43 L188 -43 L179 -98 L205 -98 L205 -98 C202 -123 184 -121 184 -121 L180 -143 C232 -143 238 -98 238 -98 L247 -43 L247 -43 Z " />
<glyph glyph-name="ncommaaccent" unicode="&#x146;" horiz-adv-x="396" d="M292 583 C261 583 231 572 204 553 L209 583 L145 583 L117 416 L43 0 L107 0 L180 416 C190 473 237 521 281 521 C327 521 357 473 347 416 L274 0 L337 0 L411 416 C426 509 373 583 292 583 L292 583 Z M199 -43 L140 -43 L131 -98 L157 -98 L157 -98 C154 -123 136 -121 136 -121 L132 -143 C184 -143 190 -98 190 -98 L199 -43 L199 -43 Z " />
<glyph glyph-name="Ncaron" unicode="&#x147;" horiz-adv-x="454" d="M484 811 L370 168 L258 811 L184 811 L41 0 L105 0 L219 649 L333 0 L403 0 L546 811 L484 811 L484 811 Z M407 981 L298 1030 L264 973 L395 913 L551 975 L535 1033 L407 981 L407 981 Z " />
<glyph glyph-name="ncaron" unicode="&#x148;" horiz-adv-x="396" d="M292 583 C261 583 231 572 204 553 L209 583 L145 583 L117 416 L43 0 L107 0 L180 416 C190 473 237 521 281 521 C327 521 357 473 347 416 L274 0 L337 0 L411 416 C426 509 373 583 292 583 L292 583 Z M340 757 L231 806 L197 749 L328 689 L484 751 L468 809 L340 757 L340 757 Z " />
<glyph glyph-name="Eng" unicode="&#x14a;" horiz-adv-x="454" d="M316 -138 C305 -199 250 -248 192 -248 C134 -248 97 -199 108 -138 L120 -72 L56 -72 L44 -138 C28 -234 89 -311 181 -311 C274 -311 361 -234 378 -138 L490 497 L427 497 L316 -138 Z M484 811 L370 168 L258 811 L184 811 L41 0 L105 0 L219 649 L333 0 L403 0 L546 811 L484 811 L484 811 Z " />
<glyph glyph-name="eng" unicode="&#x14b;" horiz-adv-x="396" d="M311 583 C280 583 250 572 223 553 L228 583 L164 583 L136 416 L68 36 L62 1 L126 1 L132 36 L199 416 C209 473 256 521 300 521 C346 521 376 473 366 416 L342 283 L295 14 C284 -46 238 -95 192 -95 C170 -95 155 -84 148 -74 L95 -128 C116 -152 148 -158 180 -158 C258 -158 335 -88 356 1 L356 1 L359 14 L406 283 L430 416 C445 509 392 583 311 583 L311 583 Z " />
<glyph glyph-name="Omacron" unicode="&#x14c;" horiz-adv-x="438" d="M352 811 L343 811 C251 811 163 737 147 644 L63 167 C46 74 108 0 201 0 L209 0 C301 0 388 74 405 167 L489 644 C505 737 444 811 352 811 L352 811 Z M342 167 C333 109 277 62 220 62 L211 62 C154 62 117 109 126 167 L210 644 C221 702 274 748 331 748 L340 748 C397 748 437 702 426 644 L342 167 L342 167 Z M366 937 L257 986 L223 929 L354 869 L510 931 L494 989 L366 937 L366 937 Z " />
<glyph glyph-name="omacron" unicode="&#x14d;" horiz-adv-x="391" d="M295 583 C214 583 135 509 120 418 L75 166 C58 74 112 0 193 0 C274 0 352 74 369 166 L414 418 C429 509 376 583 295 583 L295 583 Z M306 166 C296 110 249 62 204 62 C159 62 129 110 139 166 L183 418 C193 473 240 521 284 521 C330 521 360 473 350 418 L306 166 L306 166 Z M333 745 L224 794 L190 737 L321 677 L477 739 L461 797 L333 745 L333 745 Z " />
<glyph glyph-name="Ohungarumlaut" unicode="&#x150;" horiz-adv-x="438" d="M352 811 L343 811 C251 811 163 737 147 644 L63 167 C46 74 108 0 201 0 L209 0 C301 0 388 74 405 167 L489 644 C505 737 444 811 352 811 L352 811 Z M342 167 C333 109 277 62 220 62 L211 62 C154 62 117 109 126 167 L210 644 C221 702 274 748 331 748 L340 748 C397 748 437 702 426 644 L342 167 L342 167 Z M295 944 L337 944 L379 1033 L326 1033 L295 944 L295 944 Z M367 944 L408 944 L451 1033 L397 1033 L367 944 L367 944 Z " />
<glyph glyph-name="ohungarumlaut" unicode="&#x151;" horiz-adv-x="391" d="M295 583 C214 583 135 509 120 418 L75 166 C58 74 112 0 193 0 C274 0 352 74 369 166 L414 418 C429 509 376 583 295 583 L295 583 Z M306 166 C296 110 249 62 204 62 C159 62 129 110 139 166 L183 418 C193 473 240 521 284 521 C330 521 360 473 350 418 L306 166 L306 166 Z M256 720 L298 720 L340 809 L287 809 L256 720 L256 720 Z M328 720 L369 720 L412 809 L358 809 L328 720 L328 720 Z " />
<glyph glyph-name="OE" unicode="&#x152;" horiz-adv-x="632" d="M716 745 L727 809 L470 809 L464 773 C439 794 407 808 368 808 L360 808 C268 808 180 733 164 641 L80 167 C64 74 126 0 218 0 L227 0 C265 0 301 13 335 35 L329 0 L586 0 L596 62 L403 62 L418 146 C420 154 421 160 422 167 L452 338 L582 338 L593 401 L463 401 L506 641 C508 648 509 654 509 661 L523 745 L716 745 L716 745 Z M238 62 L229 62 C172 62 134 109 144 167 L228 641 C238 698 292 744 349 744 L358 744 C408 744 443 709 445 662 L354 144 C335 97 288 62 238 62 L238 62 Z " />
<glyph glyph-name="oe" unicode="&#x153;" horiz-adv-x="626" d="M394 290 L623 290 L643 408 C661 504 608 583 527 583 C481 583 436 558 403 518 C382 557 344 582 298 582 C217 582 138 508 122 416 L78 167 C62 76 115 1 196 1 C242 1 288 26 323 65 C342 25 379 0 425 0 C506 0 586 79 602 175 L539 175 C528 115 481 65 436 65 C395 65 367 106 371 158 C371 161 372 164 372 167 L394 290 L394 290 Z M516 518 C562 518 590 468 580 408 L571 354 L406 354 L416 416 C416 419 418 422 418 425 C433 478 475 518 516 518 L516 518 Z M206 64 C162 64 132 112 142 167 L186 416 C196 472 242 520 287 520 C330 520 359 478 354 426 C352 420 350 414 349 408 L308 175 C307 169 306 163 307 157 C293 106 250 64 206 64 L206 64 Z " />
<glyph glyph-name="Racute" unicode="&#x154;" horiz-adv-x="425" d="M349 330 C394 360 430 409 439 466 L472 647 C487 738 431 811 345 811 L177 811 L34 0 L97 0 L150 300 L246 300 C303 300 341 253 330 197 L297 0 L360 0 L394 197 C405 252 385 300 349 330 L349 330 Z M265 364 L161 364 L229 749 L334 749 C385 749 418 703 408 647 L376 466 C366 409 317 364 265 364 L265 364 Z M335 908 L377 908 L419 997 L366 997 L335 908 L335 908 Z " />
<glyph glyph-name="racute" unicode="&#x155;" horiz-adv-x="349" d="M294 583 C263 583 232 571 207 552 L211 583 L148 583 L118 410 L78 185 L46 0 L109 0 L142 185 L181 410 C192 470 239 520 283 520 C307 520 328 506 339 482 L399 518 C377 559 340 583 294 583 L294 583 Z M259 684 L301 684 L343 773 L290 773 L259 684 L259 684 Z " />
<glyph glyph-name="Rcommaaccent" unicode="&#x156;" horiz-adv-x="425" d="M349 330 C394 360 430 409 439 466 L472 647 C487 738 431 811 345 811 L177 811 L34 0 L97 0 L150 300 L246 300 C303 300 341 253 330 197 L297 0 L360 0 L394 197 C405 252 385 300 349 330 L349 330 Z M265 364 L161 364 L229 749 L334 749 C385 749 418 703 408 647 L376 466 C366 409 317 364 265 364 L265 364 Z M223 -43 L164 -43 L155 -98 L181 -98 L181 -98 C178 -123 160 -121 160 -121 L156 -143 C208 -143 214 -98 214 -98 L223 -43 L223 -43 Z " />
<glyph glyph-name="rcommaaccent" unicode="&#x157;" horiz-adv-x="349" d="M294 583 C263 583 232 571 207 552 L211 583 L148 583 L118 410 L78 185 L46 0 L109 0 L142 185 L181 410 C192 470 239 520 283 520 C307 520 328 506 339 482 L399 518 C377 559 340 583 294 583 L294 583 Z M96 -43 L37 -43 L28 -98 L54 -98 L54 -98 C51 -123 33 -121 33 -121 L29 -143 C81 -143 87 -98 87 -98 L96 -43 L96 -43 Z " />
<glyph glyph-name="Rcaron" unicode="&#x158;" horiz-adv-x="425" d="M349 330 C394 360 430 409 439 466 L472 647 C487 738 431 811 345 811 L177 811 L34 0 L97 0 L150 300 L246 300 C303 300 341 253 330 197 L297 0 L360 0 L394 197 C405 252 385 300 349 330 L349 330 Z M265 364 L161 364 L229 749 L334 749 C385 749 418 703 408 647 L376 466 C366 409 317 364 265 364 L265 364 Z M391 981 L282 1030 L248 973 L379 913 L535 975 L519 1033 L391 981 L391 981 Z " />
<glyph glyph-name="rcaron" unicode="&#x159;" horiz-adv-x="349" d="M294 583 C263 583 232 571 207 552 L211 583 L148 583 L118 410 L78 185 L46 0 L109 0 L142 185 L181 410 C192 470 239 520 283 520 C307 520 328 506 339 482 L399 518 C377 559 340 583 294 583 L294 583 Z M316 757 L207 806 L173 749 L304 689 L460 751 L444 809 L316 757 L316 757 Z " />
<glyph glyph-name="Sacute" unicode="&#x15a;" horiz-adv-x="449" d="M299 432 C244 493 193 554 211 648 C221 704 276 749 335 749 C393 749 430 700 419 638 L483 638 C499 734 438 811 346 811 C252 811 165 740 148 648 C125 527 190 450 247 386 C304 324 355 264 336 168 C319 77 252 64 214 64 C156 64 118 113 129 174 L65 174 C48 78 111 0 203 0 C250 0 293 14 325 41 C364 71 389 114 400 166 C424 292 358 367 299 432 L299 432 Z M348 908 L390 908 L432 997 L379 997 L348 908 L348 908 Z " />
<glyph glyph-name="sacute" unicode="&#x15b;" horiz-adv-x="368" d="M257 320 C214 362 176 400 188 458 C194 492 232 518 272 518 C300 518 323 504 331 481 L392 512 C376 556 335 583 283 583 C208 583 138 528 125 460 C108 370 161 317 208 270 C251 227 288 188 276 127 C266 76 224 65 192 65 C162 65 138 82 132 107 L68 82 C82 32 126 0 181 0 C262 0 324 49 338 125 C358 218 305 272 257 320 L257 320 Z M269 684 L311 684 L353 773 L300 773 L269 684 L269 684 Z " />
<glyph glyph-name="Scircumflex" unicode="&#x15c;" horiz-adv-x="449" d="M299 432 C244 493 193 554 211 648 C221 704 276 749 335 749 C393 749 430 700 419 638 L483 638 C499 734 438 811 346 811 C252 811 165 740 148 648 C125 527 190 450 247 386 C304 324 355 264 336 168 C319 77 252 64 214 64 C156 64 118 113 129 174 L65 174 C48 78 111 0 203 0 C250 0 293 14 325 41 C364 71 389 114 400 166 C424 292 358 367 299 432 L299 432 Z M212 906 L245 858 L393 963 L498 854 L546 902 L408 1045 L212 906 Z " />
<glyph glyph-name="scircumflex" unicode="&#x15d;" horiz-adv-x="368" d="M257 320 C214 362 176 400 188 458 C194 492 232 518 272 518 C300 518 323 504 331 481 L392 512 C376 556 335 583 283 583 C208 583 138 528 125 460 C108 370 161 317 208 270 C251 227 288 188 276 127 C266 76 224 65 192 65 C162 65 138 82 132 107 L68 82 C82 32 126 0 181 0 C262 0 324 49 338 125 C358 218 305 272 257 320 L257 320 Z M133 682 L166 634 L314 739 L419 630 L467 678 L329 821 L133 682 Z " />
<glyph glyph-name="Scedilla" unicode="&#x15e;" horiz-adv-x="449" d="M299 432 C244 493 193 554 211 648 C221 704 276 749 335 749 C393 749 430 700 419 638 L483 638 C499 734 438 811 346 811 C252 811 165 740 148 648 C125 527 190 450 247 386 C304 324 355 264 336 168 C319 77 252 64 214 64 C156 64 118 113 129 174 L65 174 C48 78 111 0 203 0 C250 0 293 14 325 41 C364 71 389 114 400 166 C424 292 358 367 299 432 L299 432 Z M249 22 L186 22 C178 -24 194 -49 204 -65 C209 -73 213 -79 213 -82 C210 -92 184 -103 153 -103 L142 -166 C212 -166 266 -132 275 -82 C279 -56 269 -40 261 -26 C252 -12 244 -1 249 22 L249 22 Z " />
<glyph glyph-name="scedilla" unicode="&#x15f;" horiz-adv-x="368" d="M257 320 C214 362 176 400 188 458 C194 492 232 518 272 518 C300 518 323 504 331 481 L392 512 C376 556 335 583 283 583 C208 583 138 528 125 460 C108 370 161 317 208 270 C251 227 288 188 276 127 C266 76 224 65 192 65 C162 65 138 82 132 107 L68 82 C82 32 126 0 181 0 C262 0 324 49 338 125 C358 218 305 272 257 320 L257 320 Z M208 22 L145 22 C137 -24 153 -49 163 -65 C168 -73 172 -79 172 -82 C169 -92 143 -103 112 -103 L101 -166 C171 -166 225 -132 234 -82 C238 -56 228 -40 220 -26 C211 -12 203 -1 208 22 L208 22 Z " />
<glyph glyph-name="Scaron" unicode="&#x160;" horiz-adv-x="449" d="M299 432 C244 493 193 554 211 648 C221 704 276 749 335 749 C393 749 430 700 419 638 L483 638 C499 734 438 811 346 811 C252 811 165 740 148 648 C125 527 190 450 247 386 C304 324 355 264 336 168 C319 77 252 64 214 64 C156 64 118 113 129 174 L65 174 C48 78 111 0 203 0 C250 0 293 14 325 41 C364 71 389 114 400 166 C424 292 358 367 299 432 L299 432 Z M405 981 L296 1030 L262 973 L393 913 L549 975 L533 1033 L405 981 L405 981 Z " />
<glyph glyph-name="scaron" unicode="&#x161;" horiz-adv-x="368" d="M257 320 C214 362 176 400 188 458 C194 492 232 518 272 518 C300 518 323 504 331 481 L392 512 C376 556 335 583 283 583 C208 583 138 528 125 460 C108 370 161 317 208 270 C251 227 288 188 276 127 C266 76 224 65 192 65 C162 65 138 82 132 107 L68 82 C82 32 126 0 181 0 C262 0 324 49 338 125 C358 218 305 272 257 320 L257 320 Z M327 757 L218 806 L184 749 L315 689 L471 751 L455 809 L327 757 L327 757 Z " />
<glyph glyph-name="Tcommaaccent" unicode="&#x162;" horiz-adv-x="406" d="M160 748 L281 748 L150 0 L213 0 L343 748 L463 748 L475 811 L172 811 L160 748 L160 748 Z M199 -43 L140 -43 L131 -98 L157 -98 L157 -98 C154 -123 136 -121 136 -121 L132 -143 C184 -143 190 -98 190 -98 L199 -43 L199 -43 Z " />
<glyph glyph-name="tcommaaccent" unicode="&#x163;" horiz-adv-x="367" d="M240 64 C211 64 189 110 199 173 L261 521 L371 521 L382 583 L271 583 L295 716 L232 716 L208 583 L151 583 L141 521 L197 521 L136 173 C119 77 161 0 229 0 C265 0 304 22 333 59 L285 92 C270 74 255 64 240 64 L240 64 Z " />
<glyph glyph-name="Tcaron" unicode="&#x164;" horiz-adv-x="406" d="M160 748 L281 748 L150 0 L213 0 L343 748 L463 748 L475 811 L172 811 L160 748 L160 748 Z M382 981 L273 1030 L239 973 L370 913 L526 975 L510 1033 L382 981 L382 981 Z " />
<glyph glyph-name="tcaron" unicode="&#x165;" horiz-adv-x="490" d="M240 64 C211 64 189 110 199 173 L261 521 L371 521 L382 583 L271 583 L295 716 L232 716 L208 583 L151 583 L141 521 L197 521 L136 173 C119 77 161 0 229 0 C265 0 304 22 333 59 L285 92 C270 74 255 64 240 64 L240 64 Z M528 730 L524 709 C576 709 582 754 582 754 L591 809 L533 809 L523 754 L549 754 L549 754 C546 728 528 730 528 730 L528 730 Z " />
<glyph glyph-name="Tbar" unicode="&#x166;" horiz-adv-x="371" d="M120 542 L426 542 L439 613 L133 613 L120 542 Z M160 748 L281 748 L150 0 L213 0 L343 748 L463 748 L475 811 L172 811 L160 748 L160 748 Z " />
<glyph glyph-name="tbar" unicode="&#x167;" horiz-adv-x="367" d="M240 64 C211 64 189 110 199 173 L261 521 L371 521 L382 583 L271 583 L295 716 L232 716 L208 583 L151 583 L141 521 L197 521 L136 173 C119 77 161 0 229 0 C265 0 304 22 333 59 L285 92 C270 74 255 64 240 64 L240 64 Z M87 353 L353 353 L363 413 L96 413 L87 353 L87 353 Z " />
<glyph glyph-name="Utilde" unicode="&#x168;" horiz-adv-x="446" d="M342 167 C333 109 277 64 220 64 L211 64 C154 64 117 109 126 167 L240 811 L177 811 L63 167 C46 74 108 0 201 0 L209 0 C301 0 388 74 405 167 L519 811 L456 811 L342 167 L342 167 Z M358 909 C402 878 462 836 591 945 L555 990 C467 915 442 934 401 962 C378 978 352 997 315 997 C279 997 233 980 171 927 L208 883 C248 916 280 933 304 933 C304 933 304 933 304 933 C323 933 340 922 358 909 L358 909 Z " />
<glyph glyph-name="utilde" unicode="&#x169;" horiz-adv-x="412" d="M389 551 L322 167 C312 110 265 64 220 64 C175 64 145 110 155 167 L228 583 L164 583 L91 167 C76 76 128 0 209 0 C240 0 270 12 298 30 L293 0 L356 0 L385 167 L452 551 L458 583 L395 583 L389 551 L389 551 Z M302 685 C346 654 406 612 535 721 L499 766 C411 691 386 710 345 738 C322 754 296 773 259 773 C223 773 177 756 115 703 L152 659 C192 692 224 709 248 709 C248 709 248 709 248 709 C267 709 284 698 302 685 L302 685 Z " />
<glyph glyph-name="Umacron" unicode="&#x16a;" horiz-adv-x="446" d="M342 167 C333 109 277 64 220 64 L211 64 C154 64 117 109 126 167 L240 811 L177 811 L63 167 C46 74 108 0 201 0 L209 0 C301 0 388 74 405 167 L519 811 L456 811 L342 167 L342 167 Z M377 929 L268 978 L234 921 L365 861 L521 923 L505 981 L377 929 L377 929 Z " />
<glyph glyph-name="umacron" unicode="&#x16b;" horiz-adv-x="391" d="M389 551 L322 167 C312 110 265 64 220 64 C175 64 145 110 155 167 L228 583 L164 583 L91 167 C76 76 128 0 209 0 C240 0 270 12 298 30 L293 0 L356 0 L385 167 L452 551 L458 583 L395 583 L389 551 L389 551 Z M340 721 L231 770 L197 713 L328 653 L484 715 L468 773 L340 721 L340 721 Z " />
<glyph glyph-name="Ubreve" unicode="&#x16c;" horiz-adv-x="446" d="M342 167 C333 109 277 64 220 64 L211 64 C154 64 117 109 126 167 L240 811 L177 811 L63 167 C46 74 108 0 201 0 L209 0 C301 0 388 74 405 167 L519 811 L456 811 L342 167 L342 167 Z M384 930 C340 930 310 976 319 1033 L256 1033 C240 940 293 866 373 866 C455 866 534 940 550 1033 L486 1033 C476 976 430 930 384 930 L384 930 Z " />
<glyph glyph-name="ubreve" unicode="&#x16d;" horiz-adv-x="412" d="M389 551 L322 167 C312 110 265 64 220 64 C175 64 145 110 155 167 L228 583 L164 583 L91 167 C76 76 128 0 209 0 C240 0 270 12 298 30 L293 0 L356 0 L385 167 L452 551 L458 583 L395 583 L389 551 L389 551 Z M329 706 C285 706 255 752 264 809 L201 809 C185 716 238 642 318 642 C400 642 479 716 495 809 L431 809 C421 752 375 706 329 706 L329 706 Z " />
<glyph glyph-name="Uring" unicode="&#x16e;" horiz-adv-x="446" d="M342 167 C333 109 277 64 220 64 L211 64 C154 64 117 109 126 167 L240 811 L177 811 L63 167 C46 74 108 0 201 0 L209 0 C301 0 388 74 405 167 L519 811 L456 811 L342 167 L342 167 Z M480 944 C490 993 456 1033 407 1033 C359 1033 314 993 304 944 C296 896 328 856 376 856 C425 856 472 896 480 944 L480 944 L480 944 Z M386 908 C366 908 354 925 358 944 C362 964 380 980 399 980 C419 980 430 964 426 944 C423 925 406 908 386 908 L386 908 Z " />
<glyph glyph-name="uring" unicode="&#x16f;" horiz-adv-x="391" d="M389 551 L322 167 C312 110 265 64 220 64 C175 64 145 110 155 167 L228 583 L164 583 L91 167 C76 76 128 0 209 0 C240 0 270 12 298 30 L293 0 L356 0 L385 167 L452 551 L458 583 L395 583 L389 551 L389 551 Z M412 720 C422 769 388 809 339 809 C291 809 246 769 236 720 C228 672 260 632 308 632 C357 632 404 672 412 720 L412 720 L412 720 Z M318 684 C298 684 286 701 290 720 C294 740 312 756 331 756 C351 756 362 740 358 720 C355 701 338 684 318 684 L318 684 Z " />
<glyph glyph-name="Uhungarumlaut" unicode="&#x170;" horiz-adv-x="446" d="M342 167 C333 109 277 64 220 64 L211 64 C154 64 117 109 126 167 L240 811 L177 811 L63 167 C46 74 108 0 201 0 L209 0 C301 0 388 74 405 167 L519 811 L456 811 L342 167 L342 167 Z M299 944 L341 944 L383 1033 L330 1033 L299 944 L299 944 Z M371 944 L412 944 L455 1033 L401 1033 L371 944 L371 944 Z " />
<glyph glyph-name="uhungarumlaut" unicode="&#x171;" horiz-adv-x="391" d="M389 551 L322 167 C312 110 265 64 220 64 C175 64 145 110 155 167 L228 583 L164 583 L91 167 C76 76 128 0 209 0 C240 0 270 12 298 30 L293 0 L356 0 L385 167 L452 551 L458 583 L395 583 L389 551 L389 551 Z M233 720 L275 720 L317 809 L264 809 L233 720 L233 720 Z M305 720 L346 720 L389 809 L335 809 L305 720 L305 720 Z " />
<glyph glyph-name="Uogonek" unicode="&#x172;" horiz-adv-x="458" d="M361 167 C352 109 296 64 239 64 L230 64 C173 64 136 109 145 167 L259 811 L196 811 L82 167 C65 74 127 0 220 0 L228 0 C320 0 407 74 424 167 L538 811 L475 811 L361 167 L361 167 Z M205 -82 C205 -79 210 -73 217 -65 C233 -49 258 -24 266 22 L204 22 C199 -1 190 -12 175 -26 C162 -40 145 -56 142 -82 C132 -132 174 -166 244 -166 L254 -103 C223 -103 203 -92 205 -82 L205 -82 Z " />
<glyph glyph-name="uogonek" unicode="&#x173;" horiz-adv-x="391" d="M389 551 L322 167 C312 110 265 64 220 64 C175 64 145 110 155 167 L228 583 L164 583 L91 167 C76 76 128 0 209 0 C240 0 270 12 298 30 L293 0 L356 0 L385 167 L452 551 L458 583 L395 583 L389 551 L389 551 Z M273 -130 C273 -127 278 -121 285 -113 C301 -97 326 -72 334 -26 L272 -26 C267 -49 258 -60 243 -74 C230 -88 213 -104 210 -130 C200 -180 242 -214 312 -214 L322 -151 C291 -151 271 -140 273 -130 L273 -130 Z " />
<glyph glyph-name="Ydieresis" unicode="&#x178;" horiz-adv-x="466" d="M285 428 L238 811 L172 811 L233 312 L179 0 L243 0 L298 314 L531 811 L465 811 L285 428 L285 428 Z M376 850 L435 850 L446 910 L387 910 L376 850 L376 850 Z M282 850 L341 850 L352 910 L293 910 L282 850 L282 850 Z " />
<glyph glyph-name="Zacute" unicode="&#x179;" horiz-adv-x="462" d="M197 811 L185 746 L418 746 L29 0 L358 0 L358 0 L369 62 L129 62 L519 811 L197 811 Z M354 908 L396 908 L438 997 L385 997 L354 908 L354 908 Z " />
<glyph glyph-name="zacute" unicode="&#x17a;" horiz-adv-x="388" d="M449 583 L175 583 L164 520 L344 520 L50 0 L330 0 L341 64 L155 64 L413 520 L449 583 L449 583 Z M277 684 L319 684 L361 773 L308 773 L277 684 L277 684 Z " />
<glyph glyph-name="Zdotaccent" unicode="&#x17b;" horiz-adv-x="462" d="M197 811 L185 746 L418 746 L29 0 L358 0 L358 0 L369 62 L129 62 L519 811 L197 811 Z M403 885 C423 885 441 901 444 920 C448 939 435 955 415 955 C396 955 378 939 375 920 C371 901 384 885 403 885 L403 885 Z " />
<glyph glyph-name="zdotaccent" unicode="&#x17c;" horiz-adv-x="388" d="M449 583 L175 583 L164 520 L344 520 L50 0 L330 0 L341 64 L155 64 L413 520 L449 583 L449 583 Z M342 739 C362 739 380 755 383 774 C387 793 374 809 354 809 C335 809 317 793 314 774 C310 755 323 739 342 739 L342 739 Z " />
<glyph glyph-name="Zcaron" unicode="&#x17d;" horiz-adv-x="462" d="M197 811 L185 746 L418 746 L29 0 L358 0 L358 0 L369 62 L129 62 L519 811 L197 811 Z M375 911 L266 960 L232 903 L363 843 L519 905 L503 963 L375 911 L375 911 Z " />
<glyph glyph-name="zcaron" unicode="&#x17e;" horiz-adv-x="388" d="M449 583 L175 583 L164 520 L344 520 L50 0 L330 0 L341 64 L155 64 L413 520 L449 583 L449 583 Z M335 757 L226 806 L192 749 L323 689 L479 751 L463 809 L335 757 L335 757 Z " />
<glyph glyph-name="florin" unicode="&#x192;" horiz-adv-x="388" d="M234 640 L212 514 L138 514 L127 450 L202 450 L151 167 C139 102 96 62 71 62 L60 0 C128 0 198 74 215 167 L265 450 L368 450 L379 514 L276 514 L298 640 C308 696 355 744 400 744 C418 744 433 738 445 725 L496 772 C474 794 444 808 410 808 C330 808 251 732 234 640 L234 640 Z " />
<glyph glyph-name="Scommaaccent" unicode="&#x218;" horiz-adv-x="449" d="M299 432 C244 493 193 554 211 648 C221 704 276 749 335 749 C393 749 430 700 419 638 L483 638 C499 734 438 811 346 811 C252 811 165 740 148 648 C125 527 190 450 247 386 C304 324 355 264 336 168 C319 77 252 64 214 64 C156 64 118 113 129 174 L65 174 C48 78 111 0 203 0 C250 0 293 14 325 41 C364 71 389 114 400 166 C424 292 358 367 299 432 L299 432 Z M223 -43 L164 -43 L155 -98 L181 -98 L181 -98 C178 -123 160 -121 160 -121 L156 -143 C208 -143 214 -98 214 -98 L223 -43 L223 -43 Z " />
<glyph glyph-name="scommaaccent" unicode="&#x219;" horiz-adv-x="368" d="M257 320 C214 362 176 400 188 458 C194 492 232 518 272 518 C300 518 323 504 331 481 L392 512 C376 556 335 583 283 583 C208 583 138 528 125 460 C108 370 161 317 208 270 C251 227 288 188 276 127 C266 76 224 65 192 65 C162 65 138 82 132 107 L68 82 C82 32 126 0 181 0 C262 0 324 49 338 125 C358 218 305 272 257 320 L257 320 Z M199 -43 L140 -43 L131 -98 L157 -98 L157 -98 C154 -123 136 -121 136 -121 L132 -143 C184 -143 190 -98 190 -98 L199 -43 L199 -43 Z " />
<glyph glyph-name="circumflex" unicode="&#x2c6;" horiz-adv-x="415" d="M157 682 L190 634 L338 739 L443 630 L491 678 L353 821 L157 682 Z " />
<glyph glyph-name="caron" unicode="&#x2c7;" horiz-adv-x="371" d="M323 757 L214 806 L180 749 L311 689 L467 751 L451 809 L323 757 L323 757 Z " />
<glyph glyph-name="breve" unicode="&#x2d8;" horiz-adv-x="398" d="M318 706 C274 706 244 752 253 809 L190 809 C174 716 227 642 307 642 C389 642 468 716 484 809 L420 809 C410 752 364 706 318 706 L318 706 Z " />
<glyph glyph-name="dotaccent" unicode="&#x2d9;" horiz-adv-x="169" d="M212 739 C232 739 250 755 253 774 C257 793 244 809 224 809 C205 809 187 793 184 774 C180 755 193 739 212 739 L212 739 Z " />
<glyph glyph-name="ring" unicode="&#x2da;" horiz-adv-x="247" d="M338 720 C348 769 314 809 265 809 C217 809 172 769 162 720 C154 672 186 632 234 632 C283 632 330 672 338 720 L338 720 L338 720 Z M244 684 C224 684 212 701 216 720 C220 740 238 756 257 756 C277 756 288 740 284 720 C281 701 264 684 244 684 L244 684 Z " />
<glyph glyph-name="ogonek" unicode="&#x2db;" horiz-adv-x="210" d="M97 -82 C97 -79 102 -73 109 -65 C125 -49 150 -24 158 22 L96 22 C91 -1 82 -12 67 -26 C54 -40 37 -56 34 -82 C24 -132 66 -166 136 -166 L146 -103 C115 -103 95 -92 97 -82 L97 -82 Z " />
<glyph glyph-name="tilde" unicode="&#x2dc;" horiz-adv-x="524" d="M348 685 C392 654 452 612 581 721 L545 766 C457 691 432 710 391 738 C368 754 342 773 305 773 C269 773 223 756 161 703 L198 659 C238 692 270 709 294 709 C294 709 294 709 294 709 C313 709 330 698 348 685 L348 685 Z " />
<glyph glyph-name="hungarumlaut" unicode="&#x2dd;" horiz-adv-x="248" d="M174 720 L216 720 L258 809 L205 809 L174 720 L174 720 Z M246 720 L287 720 L330 809 L276 809 L246 720 L246 720 Z " />
<glyph glyph-name="tonos" unicode="&#x384;" horiz-adv-x="170" d="M148 662 L211 662 L274 794 L194 794 L148 662 L148 662 Z " />
<glyph glyph-name="dieresistonos" unicode="&#x385;" horiz-adv-x="304" d="M264 701 L323 701 L334 761 L275 761 L264 701 L264 701 Z M170 701 L229 701 L240 761 L181 761 L170 701 L170 701 Z " />
<glyph glyph-name="Alphatonos" unicode="&#x386;" horiz-adv-x="458" d="M337 809 L40 0 L103 0 L190 232 L348 232 L352 0 L415 0 L404 809 L337 809 Z M212 294 L343 649 L347 294 L212 294 Z M205 748 L247 748 L289 837 L236 837 L205 748 L205 748 Z " />
<glyph glyph-name="Epsilontonos" unicode="&#x388;" horiz-adv-x="359" d="M53 0 L310 0 L320 62 L127 62 L175 338 L306 338 L317 401 L186 401 L247 745 L440 745 L451 809 L194 809 L53 0 Z M60 743 L102 743 L144 832 L91 832 L60 743 L60 743 Z " />
<glyph glyph-name="Etatonos" unicode="&#x389;" horiz-adv-x="430" d="M401 401 L198 401 L270 809 L206 809 L65 0 L128 0 L187 338 L390 338 L331 0 L395 0 L536 809 L473 809 L401 401 Z M76 778 L118 778 L160 867 L107 867 L76 778 L76 778 Z " />
<glyph glyph-name="Iotatonos" unicode="&#x38a;" horiz-adv-x="169" d="M62 0 L126 0 L268 808 L204 808 L62 0 Z M79 775 L121 775 L163 864 L110 864 L79 775 L79 775 Z " />
<glyph glyph-name="Omicrontonos" unicode="&#x38c;" horiz-adv-x="438" d="M370 808 L361 808 C269 808 181 733 166 641 L82 167 C65 74 127 0 220 0 L228 0 C320 0 407 74 424 167 L508 641 C523 733 462 808 370 808 L370 808 Z M361 167 C352 109 296 62 239 62 L230 62 C173 62 136 109 145 167 L229 641 C239 698 293 744 350 744 L359 744 C416 744 455 698 445 641 L361 167 Z M110 733 L152 733 L194 822 L141 822 L110 733 L110 733 Z " />
<glyph glyph-name="Upsilontonos" unicode="&#x38e;" horiz-adv-x="466" d="M306 428 L258 809 L192 809 L254 312 L200 1 L264 1 L319 314 L551 809 L485 809 L306 428 Z M77 770 L119 770 L161 859 L108 859 L77 770 L77 770 Z " />
<glyph glyph-name="Omegatonos" unicode="&#x38f;" horiz-adv-x="848" d="M761 452 C760 517 737 580 695 626 C650 674 592 701 532 701 C470 701 404 674 344 626 C284 580 238 517 215 452 C174 338 185 221 248 86 L50 86 L40 24 L361 24 L332 74 C252 216 235 330 275 440 C294 492 331 542 378 581 C425 617 476 638 521 638 C565 638 610 617 643 581 C677 542 696 492 696 440 C697 330 640 216 510 74 L464 24 L785 24 L796 86 L598 86 C709 221 762 338 761 452 L761 452 Z " />
<glyph glyph-name="iotadieresistonos" unicode="&#x390;" horiz-adv-x="400" d="M330 653 L389 653 L400 713 L341 713 L330 653 L330 653 Z M176 653 L235 653 L246 713 L187 713 L176 653 L176 653 Z M289 74 C280 67 269 62 256 62 C232 62 207 80 214 118 L299 600 L177 600 L165 536 L225 536 L151 118 C137 41 190 0 245 0 C274 0 303 11 325 30 C343 44 366 72 375 118 L312 118 C309 98 301 84 289 74 L289 74 Z M262 684 L304 684 L346 773 L293 773 L262 684 L262 684 Z " />
<glyph glyph-name="Alpha" unicode="&#x391;" horiz-adv-x="458" d="M337 809 L40 0 L103 0 L190 232 L348 232 L352 0 L415 0 L404 809 L337 809 Z M212 294 L343 649 L347 294 L212 294 Z " />
<glyph glyph-name="Beta" unicode="&#x392;" horiz-adv-x="406" d="M367 492 C407 523 438 572 448 628 L450 642 C464 734 414 809 337 809 L194 809 L190 779 L184 745 L143 511 L131 449 L64 64 L53 0 L116 0 L209 0 C294 0 376 74 392 166 L424 346 C436 409 412 464 367 492 L367 492 Z M247 745 L326 745 C368 745 397 697 386 638 L384 625 C373 569 330 523 288 523 L208 523 L247 745 Z M330 166 C320 109 270 64 220 64 L127 64 L194 449 L287 449 C337 449 372 402 361 346 L330 166 Z " />
<glyph glyph-name="Gamma" unicode="&#x393;" horiz-adv-x="355" d="M446 811 L184 811 L182 809 L173 749 L41 0 L103 0 L235 749 L436 749 L446 811 L446 811 Z " />
<glyph glyph-name="&amp;#x394;" unicode="&#x394;" horiz-adv-x="506" d="M402 695 L353 695 L60 0 L450 0 L403 671 L402 695 L402 695 Z M151 62 L347 530 L380 62 L151 62 L151 62 Z " />
<glyph glyph-name="&amp;#x2206;" unicode="&#x2206;" horiz-adv-x="506" d="M402 695 L353 695 L60 0 L450 0 L403 671 L402 695 L402 695 Z M151 62 L347 530 L380 62 L151 62 L151 62 Z " />
<glyph glyph-name="Epsilon" unicode="&#x395;" horiz-adv-x="359" d="M53 0 L310 0 L320 62 L127 62 L175 338 L306 338 L317 401 L186 401 L247 745 L440 745 L451 809 L194 809 L53 0 Z " />
<glyph glyph-name="Zeta" unicode="&#x396;" horiz-adv-x="462" d="M469 809 L469 808 L215 808 L204 744 L437 744 L48 0 L73 0 L73 0 L114 0 L377 0 L377 0 L388 62 L148 62 L536 809 L469 809 Z " />
<glyph glyph-name="Eta" unicode="&#x397;" horiz-adv-x="430" d="M401 401 L198 401 L270 809 L206 809 L65 0 L128 0 L187 338 L390 338 L331 0 L395 0 L536 809 L473 809 L401 401 Z " />
<glyph glyph-name="Theta" unicode="&#x398;" horiz-adv-x="438" d="M370 808 L361 808 C269 808 181 733 166 641 L82 167 C65 74 127 0 220 0 L228 0 C320 0 407 74 424 167 L508 641 C523 733 462 808 370 808 L370 808 Z M350 744 L359 744 C416 744 455 698 445 641 L408 433 L192 433 L229 641 C239 698 293 744 350 744 L350 744 Z M239 62 L230 62 C173 62 136 109 145 167 L181 371 L397 371 L361 167 C352 109 296 62 239 62 L239 62 Z " />
<glyph glyph-name="Iota" unicode="&#x399;" horiz-adv-x="169" d="M62 0 L126 0 L268 808 L204 808 L62 0 Z " />
<glyph glyph-name="Kappa" unicode="&#x39a;" horiz-adv-x="458" d="M556 808 L480 808 L206 473 L265 808 L202 808 L60 0 L124 0 L186 359 L258 451 L343 0 L419 0 L313 514 L556 808 Z " />
<glyph glyph-name="Lambda" unicode="&#x39b;" horiz-adv-x="449" d="M336 0 L401 0 L391 775 L391 809 L340 809 L328 775 L48 0 L112 0 L330 602 L336 0 Z " />
<glyph glyph-name="Mu" unicode="&#x39c;" horiz-adv-x="502" d="M598 809 L532 809 L316 365 L256 809 L190 809 L191 804 L49 0 L113 0 L218 601 L264 259 L268 234 L318 234 L331 259 L500 610 L394 0 L457 0 L599 806 L596 806 L598 809 Z " />
<glyph glyph-name="Nu" unicode="&#x39d;" horiz-adv-x="454" d="M488 809 L376 168 L263 809 L251 809 L188 809 L47 0 L110 0 L224 649 L338 0 L358 0 L360 1 L403 14 L358 0 L409 0 L551 809 L488 809 Z " />
<glyph glyph-name="Xi" unicode="&#x39e;" horiz-adv-x="462" d="M143 371 L450 371 L461 433 L154 433 L143 371 L143 371 Z M173 749 L556 749 L566 811 L184 811 L173 749 L173 749 Z M35 1 L428 1 L439 64 L46 64 L35 1 L35 1 Z " />
<glyph glyph-name="Omicron" unicode="&#x39f;" horiz-adv-x="438" d="M370 808 L361 808 C269 808 181 733 166 641 L82 167 C65 74 127 0 220 0 L228 0 C320 0 407 74 424 167 L508 641 C523 733 462 808 370 808 L370 808 Z M361 167 C352 109 296 62 239 62 L230 62 C173 62 136 109 145 167 L229 641 C239 698 293 744 350 744 L359 744 C416 744 455 698 445 641 L361 167 Z " />
<glyph glyph-name="Pi" unicode="&#x3a0;" horiz-adv-x="571" d="M162 652 L254 652 L146 36 L210 36 L318 652 L494 652 L386 36 L449 36 L557 652 L662 652 L673 714 L173 714 L162 652 L162 652 Z " />
<glyph glyph-name="Rho" unicode="&#x3a1;" horiz-adv-x="415" d="M362 809 L194 809 L194 806 L184 745 L116 362 L104 299 L53 1 L116 1 L168 299 L272 299 C359 299 442 373 458 464 L490 643 C505 734 449 809 362 809 L362 809 Z M395 464 C384 408 336 362 284 362 L180 362 L247 745 L352 745 C403 745 436 700 426 643 L395 464 Z " />
<glyph glyph-name="Sigma" unicode="&#x3a3;" horiz-adv-x="462" d="M280 328 L48 0 L415 0 L426 62 L163 62 L352 328 L257 593 L520 593 L530 655 L163 655 L280 328 L280 328 Z " />
<glyph glyph-name="Tau" unicode="&#x3a4;" horiz-adv-x="406" d="M179 745 L300 745 L169 1 L232 1 L362 745 L482 745 L493 809 L190 809 L179 745 Z " />
<glyph glyph-name="Upsilon" unicode="&#x3a5;" horiz-adv-x="466" d="M306 428 L258 809 L192 809 L254 312 L200 1 L264 1 L319 314 L551 809 L485 809 L306 428 Z " />
<glyph glyph-name="Phi" unicode="&#x3a6;" horiz-adv-x="443" d="M396 805 L406 858 L342 858 L332 805 C251 792 180 724 166 641 L82 167 C67 84 114 16 191 2 L173 -97 L236 -97 L254 2 C336 14 409 83 424 167 L508 641 C522 724 473 793 396 805 L396 805 Z M145 167 L229 641 C238 689 275 727 320 740 L202 66 C161 79 137 119 145 167 L145 167 Z M361 167 C353 119 312 78 265 66 L384 740 C427 730 454 689 445 641 L361 167 L361 167 Z " />
<glyph glyph-name="Chi" unicode="&#x3a7;" horiz-adv-x="467" d="M481 809 L311 480 L257 809 L190 809 L262 383 L62 0 L130 0 L276 286 L325 0 L392 0 L328 383 L548 809 L481 809 Z " />
<glyph glyph-name="Psi" unicode="&#x3a8;" horiz-adv-x="448" d="M462 809 L409 506 C400 454 361 408 317 392 L390 806 L326 806 L253 392 C214 408 192 454 202 506 L254 809 L181 809 L128 506 C112 413 162 334 240 318 L185 0 L248 0 L304 318 C390 334 466 413 482 506 L535 809 L462 809 L462 809 Z " />
<glyph glyph-name="&amp;#x3a9;" unicode="&#x3a9;" horiz-adv-x="828" d="M768 428 C768 493 744 556 702 602 C658 650 600 677 540 677 C479 677 412 650 352 602 C292 556 246 493 222 428 C182 314 192 197 257 62 L59 62 L48 0 L370 0 L341 50 C260 192 242 306 283 416 C301 468 340 518 385 557 C433 593 485 614 529 614 C574 614 618 593 650 557 C685 518 703 468 704 416 C704 306 648 192 518 50 L473 0 L793 0 L804 62 L606 62 C716 197 770 314 768 428 L768 428 Z " />
<glyph glyph-name="&amp;#x2126;" unicode="&#x2126;" horiz-adv-x="828" d="M768 428 C768 493 744 556 702 602 C658 650 600 677 540 677 C479 677 412 650 352 602 C292 556 246 493 222 428 C182 314 192 197 257 62 L59 62 L48 0 L370 0 L341 50 C260 192 242 306 283 416 C301 468 340 518 385 557 C433 593 485 614 529 614 C574 614 618 593 650 557 C685 518 703 468 704 416 C704 306 648 192 518 50 L473 0 L793 0 L804 62 L606 62 C716 197 770 314 768 428 L768 428 Z " />
<glyph glyph-name="Iotadieresis" unicode="&#x3aa;" horiz-adv-x="169" d="M62 0 L126 0 L268 808 L204 808 L62 0 Z M241 925 L300 925 L311 985 L252 985 L241 925 L241 925 Z M147 925 L206 925 L217 985 L158 985 L147 925 L147 925 Z " />
<glyph glyph-name="Upsilondieresis" unicode="&#x3ab;" horiz-adv-x="470" d="M304 428 L256 809 L190 809 L252 312 L198 1 L262 1 L317 314 L548 809 L482 809 L304 428 Z M386 881 L445 881 L456 941 L397 941 L386 881 L386 881 Z M292 881 L351 881 L362 941 L303 941 L292 881 L292 881 Z " />
<glyph glyph-name="alphatonos" unicode="&#x3ac;" horiz-adv-x="700" d="M544 72 C518 72 509 128 504 188 C514 202 522 216 530 230 C601 349 648 486 661 564 L599 564 C588 502 551 392 498 292 C494 344 488 396 473 439 C449 511 402 548 334 548 C276 548 220 512 172 446 C133 392 104 322 91 251 C80 185 84 125 102 82 C126 28 172 0 232 0 C306 0 379 38 446 115 C457 53 479 10 533 10 C586 10 654 35 676 157 L612 157 C598 79 569 72 544 72 L544 72 Z M242 62 C127 62 150 220 155 251 C175 364 247 485 323 485 C415 485 428 378 438 227 C438 216 438 206 438 197 C383 120 316 62 242 62 L242 62 Z M434 684 L476 684 L518 773 L465 773 L434 684 L434 684 Z " />
<glyph glyph-name="epsilontonos" unicode="&#x3ad;" horiz-adv-x="418" d="M187 433 C197 488 244 536 288 536 C334 536 364 488 354 433 L418 433 C434 524 380 599 299 599 C218 599 140 524 124 433 L115 385 L85 214 L77 166 C60 74 114 0 194 0 C276 0 354 74 371 166 L307 166 C298 110 251 62 205 62 C161 62 131 110 140 166 L149 214 L157 263 L361 263 L372 325 L168 325 L179 385 L187 433 L187 433 Z M294 684 L336 684 L378 773 L325 773 L294 684 L294 684 Z " />
<glyph glyph-name="etatonos" unicode="&#x3ae;" horiz-adv-x="396" d="M299 583 C268 583 238 572 211 553 L216 583 L152 583 L124 416 L56 36 L50 1 L114 1 L120 36 L187 416 C197 473 244 521 288 521 C334 521 364 473 354 416 L253 -155 L317 -155 L418 416 C433 509 380 583 299 583 L299 583 Z M282 684 L324 684 L366 773 L313 773 L282 684 L282 684 Z " />
<glyph glyph-name="iotatonos" unicode="&#x3af;" horiz-adv-x="358" d="M266 74 C257 67 246 62 233 62 C209 62 184 80 191 118 L276 600 L154 600 L142 536 L202 536 L128 118 C114 41 167 0 222 0 C251 0 280 11 302 30 C320 44 343 72 352 118 L289 118 C286 98 278 84 266 74 L266 74 Z M263 684 L305 684 L347 773 L294 773 L263 684 L263 684 Z " />
<glyph glyph-name="upsilondieresistonos" unicode="&#x3b0;" horiz-adv-x="540" d="M474 558 C510 420 473 238 388 134 C352 89 310 65 266 62 C259 74 246 122 256 301 C260 412 272 518 272 518 L277 560 L138 515 L148 455 L204 474 C200 427 194 348 191 270 C188 198 188 140 192 98 C197 49 206 0 247 0 C317 0 382 35 434 100 C484 158 521 239 539 328 C558 416 557 506 536 583 L474 558 Z M438 653 L497 653 L508 713 L449 713 L438 653 Z M284 653 L343 653 L354 713 L295 713 L284 653 Z M372 684 L414 684 L456 773 L403 773 L372 684 L372 684 Z " />
<glyph glyph-name="alpha" unicode="&#x3b1;" horiz-adv-x="700" d="M544 72 C518 72 509 128 504 188 C514 202 522 216 530 230 C601 349 648 486 661 564 L599 564 C588 502 551 392 498 292 C494 344 488 396 473 439 C449 511 402 548 334 548 C276 548 220 512 172 446 C133 392 104 322 91 251 C80 185 84 125 102 82 C126 28 172 0 232 0 C306 0 379 38 446 115 C457 53 479 10 533 10 C586 10 654 35 676 157 L612 157 C598 79 569 72 544 72 L544 72 Z M242 62 C127 62 150 220 155 251 C175 364 247 485 323 485 C415 485 428 378 438 227 C438 216 438 206 438 197 C383 120 316 62 242 62 L242 62 Z " />
<glyph glyph-name="beta" unicode="&#x3b2;" horiz-adv-x="468" d="M416 476 C404 487 394 496 382 503 C422 528 460 568 478 625 C510 730 470 781 444 802 C401 835 332 839 272 810 C216 784 176 734 167 677 L13 -192 L77 -192 L230 677 C239 722 271 745 290 755 C329 773 373 770 400 750 C426 727 433 688 418 634 C389 540 286 526 276 524 C275 524 274 524 274 524 L269 462 C270 462 270 462 271 462 C278 462 331 466 366 428 C398 394 409 334 394 248 C380 175 358 125 324 97 C286 65 239 66 200 67 C194 67 190 68 185 68 L173 5 C178 5 182 5 188 5 C233 4 300 1 360 52 C409 92 440 157 456 248 C474 353 462 430 416 476 L416 476 Z " />
<glyph glyph-name="gamma" unicode="&#x3b3;" horiz-adv-x="596" d="M626 612 C534 520 467 409 418 304 C418 414 401 492 366 539 C340 571 307 588 265 588 C221 588 192 570 175 554 C133 517 128 462 128 456 L192 462 C192 469 197 497 215 512 C224 521 238 526 254 526 C278 526 296 516 312 496 C366 425 360 248 340 85 C294 -76 286 -198 287 -203 L349 -202 C352 -197 382 -68 402 84 C443 226 521 425 667 571 L626 612 L626 612 Z " />
<glyph glyph-name="delta" unicode="&#x3b4;" horiz-adv-x="428" d="M356 337 C268 430 252 493 268 521 C278 540 308 542 322 542 C397 542 410 503 412 502 C412 503 410 503 410 503 L474 528 C473 530 452 605 332 605 C277 605 234 582 212 542 C196 512 188 464 224 397 C66 235 64 136 78 90 C95 32 151 0 233 0 C301 0 362 36 396 96 C438 174 422 269 356 337 L356 337 Z M340 119 C320 83 286 62 244 62 C188 62 150 83 140 116 C124 169 167 252 257 348 C270 330 287 311 306 290 C367 228 362 158 340 119 L340 119 Z " />
<glyph glyph-name="epsilon" unicode="&#x3b5;" horiz-adv-x="418" d="M187 433 C197 488 244 536 288 536 C334 536 364 488 354 433 L418 433 C434 524 380 599 299 599 C218 599 140 524 124 433 L115 385 L85 214 L77 166 C60 74 114 0 194 0 C276 0 354 74 371 166 L307 166 C298 110 251 62 205 62 C161 62 131 110 140 166 L149 214 L157 263 L361 263 L372 325 L168 325 L179 385 L187 433 L187 433 Z " />
<glyph glyph-name="zeta" unicode="&#x3b6;" horiz-adv-x="571" d="M352 34 C341 34 330 34 320 34 C250 32 212 34 197 54 C169 90 193 214 236 388 C246 428 260 463 275 492 C314 490 366 503 427 528 C541 577 554 628 551 653 C548 689 510 710 457 706 C404 701 347 672 301 626 C282 608 265 588 250 566 C250 566 248 566 248 568 C216 592 224 654 230 676 L199 678 L167 680 C167 676 139 566 202 516 C206 512 210 510 216 506 C199 473 185 434 174 392 C114 152 106 60 143 11 C175 -31 232 -30 310 -30 C320 -30 330 -30 341 -30 C427 -30 456 -62 454 -79 C452 -88 443 -96 428 -103 C404 -116 371 -122 331 -122 L319 -186 C371 -186 416 -176 450 -158 C487 -139 511 -110 517 -79 C527 -25 479 34 352 34 L352 34 Z M431 638 C443 642 452 643 461 643 C475 643 485 640 487 636 C485 630 467 610 412 586 C373 570 341 559 314 556 C361 616 412 634 431 638 L431 638 Z " />
<glyph glyph-name="eta" unicode="&#x3b7;" horiz-adv-x="396" d="M299 583 C268 583 238 572 211 553 L216 583 L152 583 L124 416 L56 36 L50 1 L114 1 L120 36 L187 416 C197 473 244 521 288 521 C334 521 364 473 354 416 L253 -155 L317 -155 L418 416 C433 509 380 583 299 583 L299 583 Z " />
<glyph glyph-name="theta" unicode="&#x3b8;" horiz-adv-x="383" d="M299 582 C218 582 139 508 124 416 L79 167 C64 76 116 1 197 1 C278 1 358 76 373 167 L418 416 C433 508 380 582 299 582 L299 582 Z M288 520 C334 520 364 472 354 416 L337 325 L170 325 L187 416 C197 472 244 520 288 520 L288 520 Z M208 64 C163 64 133 112 143 167 L160 263 L326 263 L310 167 C300 112 253 64 208 64 L208 64 Z " />
<glyph glyph-name="iota" unicode="&#x3b9;" horiz-adv-x="358" d="M266 74 C257 67 246 62 233 62 C209 62 184 80 191 118 L276 600 L154 600 L142 536 L202 536 L128 118 C114 41 167 0 222 0 C251 0 280 11 302 30 C320 44 343 72 352 118 L289 118 C286 98 278 84 266 74 L266 74 Z " />
<glyph glyph-name="kappa" unicode="&#x3ba;" horiz-adv-x="466" d="M422 583 L188 347 L230 583 L167 583 L65 0 L128 0 L170 242 L254 330 L318 1 L390 1 L312 385 L499 583 L422 583 Z " />
<glyph glyph-name="lambda" unicode="&#x3bb;" horiz-adv-x="658" d="M515 182 C482 265 462 373 444 468 C430 542 418 608 401 650 C365 746 305 748 274 740 C217 726 164 664 152 598 L216 598 C223 635 251 672 278 679 C301 685 324 664 341 620 C355 582 367 516 380 445 L394 383 L392 384 L152 0 L222 0 L410 302 C422 250 436 197 455 151 C497 42 551 -11 620 -11 L631 52 C587 52 548 96 515 182 L515 182 Z " />
<glyph glyph-name="nu" unicode="&#x3bd;" horiz-adv-x="377" d="M215 206 L211 582 L148 582 L151 34 L152 5 L154 0 L178 0 L179 0 L180 0 L205 0 L205 5 L216 34 L414 582 L350 582 L215 206 Z " />
<glyph glyph-name="xi" unicode="&#x3be;" horiz-adv-x="576" d="M352 34 C341 34 330 34 320 34 C250 32 212 34 197 54 C176 80 184 150 204 251 L420 251 L432 314 L220 314 C224 337 230 362 236 388 C246 428 260 463 275 492 C314 490 366 503 427 528 C541 577 554 628 551 653 C548 689 510 710 457 706 C404 701 347 672 301 626 C282 608 265 588 250 566 C250 566 248 566 248 568 C216 592 224 654 230 676 L199 678 L167 680 C167 676 139 566 202 516 C206 512 210 510 216 506 C199 473 185 434 174 392 C114 152 106 60 143 11 C175 -31 232 -30 310 -30 C320 -30 330 -30 341 -30 C427 -30 456 -62 454 -79 C452 -88 443 -96 428 -103 C404 -116 371 -122 331 -122 L319 -186 C371 -186 416 -176 450 -158 C487 -139 511 -110 517 -79 C527 -25 479 34 352 34 L352 34 Z M431 638 C443 642 452 643 461 643 C475 643 485 640 487 636 C485 630 467 610 412 586 C373 570 341 559 314 556 C361 616 412 634 431 638 L431 638 Z " />
<glyph glyph-name="omicron" unicode="&#x3bf;" horiz-adv-x="391" d="M299 582 C218 582 139 508 124 416 L79 167 C64 76 116 1 197 1 C278 1 358 76 373 167 L418 416 C433 508 380 582 299 582 L299 582 Z M310 167 C300 112 253 64 208 64 C163 64 133 112 143 167 L187 416 C197 472 244 520 288 520 C334 520 364 472 354 416 L310 167 Z " />
<glyph glyph-name="pi" unicode="&#x3c0;" horiz-adv-x="670" d="M414 504 C342 481 280 461 170 527 L131 472 C179 443 220 428 258 422 L190 36 L253 36 L320 420 C359 424 391 434 424 445 C451 454 476 462 505 466 L430 36 L492 36 L568 463 C598 458 631 445 671 421 L712 476 C577 557 491 529 414 504 L414 504 Z " />
<glyph glyph-name="rho" unicode="&#x3c1;" horiz-adv-x="396" d="M311 582 C280 582 248 571 223 552 L228 583 L164 583 L136 415 L91 167 L28 -193 L91 -193 L131 30 C150 11 178 0 209 0 C290 0 371 85 388 178 L430 415 C445 508 392 582 311 582 L311 582 Z M322 167 C312 110 265 62 220 62 C175 62 145 110 155 167 L199 415 C209 472 256 518 300 518 C346 518 376 472 366 415 L322 167 Z " />
<glyph glyph-name="sigma1" unicode="&#x3c2;" horiz-adv-x="556" d="M354 568 C298 562 241 532 193 480 C148 432 115 372 102 311 C88 244 100 181 136 133 C176 77 245 41 341 24 C377 18 398 -1 400 -29 C401 -53 386 -76 364 -90 C319 -116 253 -101 185 -48 L140 -100 C204 -150 259 -166 302 -166 C343 -166 373 -151 390 -142 C437 -114 466 -65 463 -16 C462 38 424 76 361 86 C212 112 142 192 166 308 C175 356 200 404 235 442 C271 479 311 502 349 505 C406 510 448 499 472 470 C516 416 490 318 488 317 L521 314 L551 311 C552 316 586 439 523 515 C488 557 431 575 354 568 L354 568 Z " />
<glyph glyph-name="sigma" unicode="&#x3c3;" horiz-adv-x="466" d="M115 385 L77 166 C60 74 114 0 194 0 C276 0 354 74 371 166 L409 385 C416 424 410 460 395 488 L506 488 L517 551 L290 551 C210 551 132 476 115 385 L115 385 Z M346 385 L307 166 C298 110 251 62 205 62 C161 62 131 110 140 166 L179 385 C188 440 235 488 280 488 C325 488 355 440 346 385 L346 385 Z " />
<glyph glyph-name="tau" unicode="&#x3c4;" horiz-adv-x="220" d="M44 529 L184 529 L83 -46 L145 -46 L257 592 L55 592 L44 529 Z " />
<glyph glyph-name="upsilon" unicode="&#x3c5;" horiz-adv-x="515" d="M462 558 C498 420 461 238 376 134 C340 89 298 65 254 62 C247 74 234 122 244 301 C248 412 260 518 260 518 L265 560 L126 515 L136 455 L192 474 C188 427 182 348 179 270 C176 198 176 140 180 98 C185 49 194 0 235 0 C305 0 370 35 422 100 C472 158 509 239 527 328 C546 416 545 506 524 583 L462 558 L462 558 Z " />
<glyph glyph-name="phi" unicode="&#x3c6;" horiz-adv-x="398" d="M324 580 L343 688 L280 688 L259 576 C193 557 137 492 124 416 L79 167 C66 90 100 26 160 7 L145 -72 L209 -72 L222 4 C294 17 359 85 373 167 L418 416 C432 498 391 566 324 580 L324 580 Z M143 167 L187 416 C193 455 217 490 247 508 L172 76 C148 94 136 128 143 167 L143 167 Z M310 167 C301 122 270 83 234 68 L312 515 C343 500 361 461 354 416 L310 167 L310 167 Z " />
<glyph glyph-name="chi" unicode="&#x3c7;" horiz-adv-x="474" d="M508 583 L438 583 L308 382 L248 583 L179 583 L260 308 L62 0 L132 0 L283 234 L353 0 L422 0 L331 308 L508 583 Z " />
<glyph glyph-name="psi" unicode="&#x3c8;" horiz-adv-x="443" d="M422 581 L371 290 C361 238 324 192 278 176 L349 578 L286 578 L215 176 C176 192 154 238 163 290 L215 581 L142 581 L90 290 C73 197 124 118 202 102 L146 -216 L210 -216 L265 102 C352 118 427 197 444 290 L496 581 L422 581 L422 581 Z " />
<glyph glyph-name="omega" unicode="&#x3c9;" horiz-adv-x="754" d="M678 583 L625 539 C726 416 720 252 660 152 C641 119 598 62 527 62 C518 62 506 65 496 79 C473 109 466 170 467 240 C488 316 500 410 503 522 L439 518 C438 515 419 425 409 322 C406 293 403 265 403 240 C385 178 360 131 329 101 C304 76 271 62 233 62 C185 62 164 97 155 125 C127 214 170 378 307 523 L264 562 C100 388 61 199 94 97 C114 35 161 0 222 0 C280 0 328 20 370 60 C384 74 398 91 412 110 C418 78 428 53 443 35 C461 12 486 0 516 0 C594 0 666 47 714 127 C752 192 770 271 767 350 C763 437 731 517 678 583 L678 583 Z " />
<glyph glyph-name="iotadieresis" unicode="&#x3ca;" horiz-adv-x="358" d="M266 74 C257 67 246 62 233 62 C209 62 184 80 191 118 L276 600 L154 600 L142 536 L202 536 L128 118 C114 41 167 0 222 0 C251 0 280 11 302 30 C320 44 343 72 352 118 L289 118 C286 98 278 84 266 74 L266 74 Z M236 701 L295 701 L306 761 L247 761 L236 701 L236 701 Z M142 701 L201 701 L212 761 L153 761 L142 701 L142 701 Z " />
<glyph glyph-name="upsilondieresis" unicode="&#x3cb;" horiz-adv-x="515" d="M462 558 C498 420 461 238 376 134 C340 89 298 65 254 62 C247 74 234 122 244 301 C248 412 260 518 260 518 L265 560 L126 515 L136 455 L192 474 C188 427 182 348 179 270 C176 198 176 140 180 98 C185 49 194 0 235 0 C305 0 370 35 422 100 C472 158 509 239 527 328 C546 416 545 506 524 583 L462 558 L462 558 Z M374 701 L433 701 L444 761 L385 761 L374 701 L374 701 Z M280 701 L339 701 L350 761 L291 761 L280 701 L280 701 Z " />
<glyph glyph-name="omicrontonos" unicode="&#x3cc;" horiz-adv-x="391" d="M299 582 C218 582 139 508 124 416 L79 167 C64 76 116 1 197 1 C278 1 358 76 373 167 L418 416 C433 508 380 582 299 582 L299 582 Z M310 167 C300 112 253 64 208 64 C163 64 133 112 143 167 L187 416 C197 472 244 520 288 520 C334 520 364 472 354 416 L310 167 Z M280 684 L322 684 L364 773 L311 773 L280 684 L280 684 Z " />
<glyph glyph-name="upsilontonos" unicode="&#x3cd;" horiz-adv-x="533" d="M462 558 C498 420 461 238 376 134 C340 89 298 65 254 62 C247 74 234 122 244 301 C248 412 260 518 260 518 L265 560 L126 515 L136 455 L192 474 C188 427 182 348 179 270 C176 198 176 140 180 98 C185 49 194 0 235 0 C305 0 370 35 422 100 C472 158 509 239 527 328 C546 416 545 506 524 583 L462 558 Z M355 654 L397 654 L439 743 L386 743 L355 654 L355 654 Z " />
<glyph glyph-name="omegatonos" unicode="&#x3ce;" horiz-adv-x="797" d="M464 764 L451 632 L503 632 L533 764 L464 764 Z M678 583 L625 539 C726 416 720 252 660 152 C641 119 598 62 527 62 C518 62 506 65 496 79 C473 109 466 170 467 240 C488 316 500 410 503 522 L439 518 C438 515 419 425 409 322 C406 293 403 265 403 240 C385 178 360 131 329 101 C304 76 271 62 233 62 C185 62 164 97 155 125 C127 214 170 378 307 523 L264 562 C100 388 61 199 94 97 C114 35 161 0 222 0 C280 0 328 20 370 60 C384 74 398 91 412 110 C418 78 428 53 443 35 C461 12 486 0 516 0 C594 0 666 47 714 127 C752 192 770 271 767 350 C763 437 731 517 678 583 L678 583 Z " />
<glyph glyph-name="afii10023" unicode="&#x401;" horiz-adv-x="359" d="M53 0 L310 0 L320 62 L127 62 L175 338 L306 338 L317 401 L186 401 L247 745 L440 745 L451 809 L194 809 L53 0 Z M355 893 L414 893 L425 953 L366 953 L355 893 L355 893 Z M261 893 L320 893 L331 953 L272 953 L261 893 L261 893 Z " />
<glyph glyph-name="afii10051" unicode="&#x402;" horiz-adv-x="431" d="M372 566 C341 566 310 556 282 536 L319 745 L442 745 L452 808 L209 808 L198 745 L257 745 L198 410 C197 407 197 403 196 400 L157 182 L157 182 L122 -18 L185 -18 L260 409 C274 461 317 503 360 503 C406 503 437 456 426 400 L388 182 C377 121 325 62 283 62 L272 0 C359 0 436 96 450 182 L488 400 C505 491 452 566 372 566 L372 566 Z " />
<glyph glyph-name="afii10052" unicode="&#x403;" horiz-adv-x="352" d="M458 811 L196 811 L194 809 L185 749 L53 0 L115 0 L247 749 L448 749 L458 811 L458 811 Z M300 866 L342 866 L384 955 L331 955 L300 866 L300 866 Z " />
<glyph glyph-name="afii10053" unicode="&#x404;" horiz-adv-x="418" d="M355 805 C275 805 196 731 179 638 L161 538 C151 481 167 432 199 402 C156 372 124 322 114 266 L96 166 C79 73 132 -1 212 -1 L352 -1 L362 61 L223 61 C178 61 149 109 158 166 L176 266 C186 323 233 370 278 370 L370 370 L370 371 L380 433 L380 434 L289 434 C244 434 214 481 223 538 L241 638 C252 695 298 742 343 742 L482 742 L494 805 L355 805 L355 805 Z " />
<glyph glyph-name="afii10054" unicode="&#x405;" horiz-adv-x="449" d="M330 432 C275 493 223 551 241 644 C251 701 306 745 365 745 C422 745 461 696 450 635 L514 635 C530 731 468 808 376 808 C282 808 196 737 178 644 C155 523 221 450 278 386 C335 324 386 265 367 169 C350 78 283 65 245 65 C187 65 149 114 160 175 L96 175 C79 79 142 1 234 1 C281 1 324 16 358 42 C395 72 420 115 431 167 C456 293 389 367 330 432 L330 432 Z " />
<glyph glyph-name="afii10055" unicode="&#x406;" horiz-adv-x="169" d="M50 0 L114 0 L256 808 L192 808 L50 0 Z " />
<glyph glyph-name="Yi" unicode="&#x407;" horiz-adv-x="178" d="M263 848 L350 848 L366 938 L278 938 L263 848 Z M121 848 L210 848 L226 938 L137 938 L121 848 Z M61 0 L125 0 L266 808 L203 808 L61 0 Z " />
<glyph glyph-name="afii10057" unicode="&#x408;" horiz-adv-x="448" d="M354 174 C343 113 288 64 230 64 C173 64 136 113 146 174 L181 372 L118 372 L83 174 C66 78 127 1 220 1 C312 1 400 78 416 174 L528 809 L466 809 L354 174 Z " />
<glyph glyph-name="afii10058" unicode="&#x409;" horiz-adv-x="718" d="M588 563 L505 563 L548 806 L485 806 L485 804 L370 804 L248 122 C242 84 212 67 187 67 C175 67 164 72 158 79 C151 89 148 103 150 122 L88 122 C80 77 94 49 107 35 C122 16 148 5 176 5 C232 5 298 46 311 122 L420 742 L473 742 L342 -2 L373 -2 L373 -4 L488 -4 C570 -4 649 71 665 163 L707 396 C722 488 670 563 588 563 L588 563 Z M601 163 C592 107 545 60 499 60 L416 60 L494 499 L577 499 C623 499 653 452 643 396 L601 163 L601 163 Z " />
<glyph glyph-name="afii10059" unicode="&#x40a;" horiz-adv-x="707" d="M594 563 L530 563 L574 806 L510 806 L467 563 L389 563 L432 806 L370 806 L248 122 C242 84 212 67 187 67 C175 67 164 72 158 79 C151 89 148 103 150 122 L88 122 C80 77 94 49 107 35 C122 16 148 5 176 5 C232 5 298 46 311 122 L378 499 L456 499 L367 -2 L398 -2 L398 -4 L515 -4 C595 -4 674 71 690 163 L732 396 C748 488 686 563 594 563 L594 563 Z M626 163 C617 107 570 60 526 60 L442 60 L520 499 L583 499 C641 499 678 454 668 396 L626 163 L626 163 Z " />
<glyph glyph-name="afii10060" unicode="&#x40b;" horiz-adv-x="472" d="M353 410 C322 410 290 398 263 380 L288 518 L426 518 L437 581 L169 581 L158 518 L224 518 L175 244 L138 28 L132 -1 L196 -1 L202 28 L239 244 C250 300 295 347 341 347 C385 347 416 300 406 244 L364 0 L427 0 L469 244 C486 335 433 410 353 410 L353 410 Z " />
<glyph glyph-name="afii10061" unicode="&#x40c;" horiz-adv-x="458" d="M556 808 L480 808 L206 473 L265 808 L202 808 L60 0 L124 0 L186 359 L258 451 L343 0 L419 0 L313 514 L556 808 Z M353 908 L395 908 L437 997 L384 997 L353 908 L353 908 Z " />
<glyph glyph-name="afii10062" unicode="&#x40e;" horiz-adv-x="472" d="M316 428 L268 809 L202 809 L264 312 L210 1 L274 1 L329 314 L560 809 L494 809 L316 428 Z M400 898 C355 898 325 944 336 1001 L272 1001 C256 908 308 834 389 834 C470 834 550 908 566 1001 L503 1001 C492 944 445 898 400 898 L400 898 Z " />
<glyph glyph-name="afii10145" unicode="&#x40f;" horiz-adv-x="547" d="M457 236 L170 236 L270 803 L208 803 L97 173 L271 173 L240 -1 L304 -1 L335 173 L510 173 L622 809 L558 809 L457 236 L457 236 Z " />
<glyph glyph-name="afii10017" unicode="&#x410;" horiz-adv-x="458" d="M346 809 L48 0 L112 0 L198 232 L356 232 L360 0 L424 0 L413 809 L346 809 Z M221 294 L352 649 L355 294 L221 294 Z " />
<glyph glyph-name="afii10018" unicode="&#x411;" horiz-adv-x="437" d="M271 371 L194 371 L229 568 L396 568 L407 631 L178 631 L66 -2 L97 -2 L97 -4 L212 -4 C294 -4 373 71 389 163 L396 204 C413 296 356 371 271 371 L271 371 Z M325 163 C316 107 269 60 223 60 L139 60 L184 307 L260 307 C311 307 343 262 332 204 L325 163 L325 163 Z " />
<glyph glyph-name="afii10019" unicode="&#x412;" horiz-adv-x="406" d="M367 492 C407 523 438 572 448 628 L450 642 C464 734 414 809 337 809 L194 809 L190 779 L184 745 L143 511 L131 449 L64 64 L53 0 L116 0 L209 0 C294 0 376 74 392 166 L424 346 C436 409 412 464 367 492 L367 492 Z M247 745 L326 745 C368 745 397 697 386 638 L384 625 C373 569 330 523 288 523 L208 523 L247 745 Z M330 166 C320 109 270 64 220 64 L127 64 L194 449 L287 449 C337 449 372 402 361 346 L330 166 Z " />
<glyph glyph-name="afii10020" unicode="&#x413;" horiz-adv-x="456" d="M547 808 L209 808 L65 -12 L127 -12 L260 744 L536 744 L547 808 L547 808 Z " />
<glyph glyph-name="afii10021" unicode="&#x414;" horiz-adv-x="769" d="M790 806 L400 806 L394 775 C352 535 233 180 112 180 L80 180 L49 0 L112 0 L132 118 L656 118 L636 0 L700 0 L731 180 L679 180 L790 806 L790 806 Z M350 395 C397 512 432 649 451 744 L716 744 L617 180 L226 180 C270 227 311 299 350 395 L350 395 Z " />
<glyph glyph-name="afii10022" unicode="&#x415;" horiz-adv-x="359" d="M53 0 L310 0 L320 62 L127 62 L175 338 L306 338 L317 401 L186 401 L247 745 L440 745 L451 809 L194 809 L53 0 Z " />
<glyph glyph-name="afii10024" unicode="&#x416;" horiz-adv-x="779" d="M625 514 L868 808 L792 808 L518 473 L577 808 L514 808 L455 473 L299 808 L223 808 L362 514 L77 0 L152 0 L396 451 L434 359 L372 0 L436 0 L498 359 L570 451 L655 0 L731 0 L625 514 L625 514 Z " />
<glyph glyph-name="afii10025" unicode="&#x417;" horiz-adv-x="431" d="M348 805 L209 805 L197 742 L336 742 C382 742 413 695 402 638 L384 538 C374 481 328 434 282 434 L191 434 L191 433 L180 371 L180 370 L271 370 C317 370 347 323 337 266 L319 166 C310 109 262 61 216 61 L77 61 L66 -1 L205 -1 C286 -1 365 73 382 166 L400 266 C409 322 394 372 362 402 C404 432 437 481 446 538 L464 638 C481 731 428 805 348 805 L348 805 Z " />
<glyph glyph-name="afii10026" unicode="&#x418;" horiz-adv-x="454" d="M202 809 L60 0 L112 0 L71 14 L109 1 L112 0 L131 0 L473 649 L359 0 L422 0 L564 809 L502 809 L490 809 L151 168 L264 809 L202 809 Z " />
<glyph glyph-name="afii10027" unicode="&#x419;" horiz-adv-x="418" d="M138 142 L391 596 L400 596 L458 596 L463 596 L359 1 L295 1 L368 420 L130 0 L126 0 L126 0 L109 0 L50 0 L50 0 L155 596 L218 596 L138 142 Z M330 706 C286 706 256 752 265 809 L202 809 C186 716 239 642 319 642 C401 642 480 716 496 809 L432 809 C422 752 376 706 330 706 L330 706 Z " />
<glyph glyph-name="afii10028" unicode="&#x41a;" horiz-adv-x="458" d="M556 808 L480 808 L206 473 L265 808 L202 808 L60 0 L124 0 L186 359 L258 451 L343 0 L419 0 L313 514 L556 808 Z " />
<glyph glyph-name="afii10029" unicode="&#x41b;" horiz-adv-x="601" d="M312 683 L281 683 L193 187 C181 119 133 61 90 61 L59 61 L48 -1 L79 -1 C158 -1 239 83 257 187 L332 619 L528 619 L419 -2 L482 -2 L604 683 L344 683 L312 683 L312 683 Z " />
<glyph glyph-name="afii10030" unicode="&#x41c;" horiz-adv-x="502" d="M599 809 L533 809 L317 365 L257 809 L191 809 L192 804 L50 0 L114 0 L220 601 L265 259 L269 234 L319 234 L332 259 L502 610 L395 0 L458 0 L600 806 L598 806 L599 809 Z " />
<glyph glyph-name="afii10031" unicode="&#x41d;" horiz-adv-x="430" d="M377 401 L174 401 L246 809 L182 809 L41 0 L104 0 L163 338 L366 338 L307 0 L371 0 L512 809 L449 809 L377 401 Z " />
<glyph glyph-name="afii10032" unicode="&#x41e;" horiz-adv-x="438" d="M370 808 L361 808 C269 808 181 733 166 641 L82 167 C65 74 127 0 220 0 L228 0 C320 0 407 74 424 167 L508 641 C523 733 462 808 370 808 L370 808 Z M361 167 C352 109 296 62 239 62 L230 62 C173 62 136 109 145 167 L229 641 C239 698 293 744 350 744 L359 744 C416 744 455 698 445 641 L361 167 Z " />
<glyph glyph-name="afii10033" unicode="&#x41f;" horiz-adv-x="502" d="M248 806 L217 806 L185 806 L43 0 L107 0 L238 744 L502 744 L370 -1 L433 -1 L576 806 L248 806 Z " />
<glyph glyph-name="afii10034" unicode="&#x420;" horiz-adv-x="415" d="M362 809 L194 809 L194 806 L184 745 L116 362 L104 299 L53 1 L116 1 L168 299 L272 299 C359 299 442 373 458 464 L490 643 C505 734 449 809 362 809 L362 809 Z M395 464 C384 408 336 362 284 362 L180 362 L247 745 L352 745 C403 745 436 700 426 643 L395 464 Z " />
<glyph glyph-name="afii10035" unicode="&#x421;" horiz-adv-x="437" d="M346 745 L354 745 C382 745 404 734 421 714 C431 701 438 684 439 666 L504 683 C500 712 491 737 474 758 C449 791 409 808 365 808 L356 808 C264 808 176 731 160 636 L78 173 C61 78 122 0 215 0 L223 0 C294 0 364 47 400 114 L343 136 C322 92 277 64 234 64 L226 64 C168 64 131 113 142 173 L223 636 C234 696 288 745 346 745 L346 745 Z " />
<glyph glyph-name="afii10036" unicode="&#x422;" horiz-adv-x="406" d="M179 745 L300 745 L169 1 L232 1 L362 745 L482 745 L493 809 L190 809 L179 745 Z " />
<glyph glyph-name="afii10037" unicode="&#x423;" horiz-adv-x="418" d="M389 548 L322 168 C312 112 265 64 220 64 C175 64 145 112 155 168 L228 583 L164 583 L91 168 C76 76 128 1 209 1 C240 1 270 12 298 31 L293 1 C282 -58 235 -108 190 -108 C168 -108 154 -97 145 -88 L94 -134 C115 -158 145 -172 178 -172 C259 -172 340 -94 356 1 L385 168 L452 548 L458 583 L395 583 L389 548 Z " />
<glyph glyph-name="afii10038" unicode="&#x424;" horiz-adv-x="438" d="M396 805 L406 858 L342 858 L332 805 C251 792 180 724 166 641 L82 167 C67 84 114 16 191 2 L173 -97 L236 -97 L254 2 C336 14 409 83 424 167 L508 641 C522 724 473 793 396 805 L396 805 Z M145 167 L229 641 C238 689 275 727 320 740 L202 66 C161 79 137 119 145 167 L145 167 Z M361 167 C353 119 312 78 265 66 L384 740 C427 730 454 689 445 641 L361 167 Z " />
<glyph glyph-name="afii10039" unicode="&#x425;" horiz-adv-x="467" d="M481 809 L311 480 L257 809 L190 809 L262 383 L62 0 L130 0 L276 286 L325 0 L392 0 L328 383 L548 809 L481 809 Z " />
<glyph glyph-name="afii10040" unicode="&#x426;" horiz-adv-x="635" d="M590 804 L528 804 L396 60 L371 60 L121 60 L253 804 L191 804 L48 -2 L360 -2 L448 -2 L502 -2 L482 -115 L546 -115 L576 60 L458 60 L590 804 L590 804 Z " />
<glyph glyph-name="afii10041" unicode="&#x427;" horiz-adv-x="475" d="M502 782 L436 406 C426 349 371 302 314 302 L268 302 C211 302 173 349 182 406 L253 805 L191 805 L120 406 C104 314 166 239 257 239 L304 239 C342 239 380 253 413 276 L364 -2 L426 -2 L498 406 L564 782 L569 808 L506 808 L502 782 L502 782 Z " />
<glyph glyph-name="afii10042" unicode="&#x428;" horiz-adv-x="607" d="M505 60 L352 60 L484 806 L420 806 L288 60 L133 60 L265 804 L203 804 L60 -2 L558 -2 L701 804 L637 804 L505 60 L505 60 Z " />
<glyph glyph-name="afii10043" unicode="&#x429;" horiz-adv-x="730" d="M690 804 L626 804 L494 60 L491 60 L341 60 L473 806 L409 806 L277 60 L122 60 L254 804 L192 804 L49 -2 L480 -2 L547 -2 L595 -2 L576 -115 L638 -115 L668 60 L558 60 L690 804 L690 804 Z " />
<glyph glyph-name="afii10044" unicode="&#x42a;" horiz-adv-x="515" d="M372 468 L296 468 L356 809 L191 809 L180 745 L283 745 L151 -2 L182 -2 L182 -4 L298 -4 C378 -4 457 71 473 162 L498 301 C514 394 458 468 372 468 L372 468 Z M410 162 C401 107 354 59 308 59 L224 59 L286 404 L361 404 C413 404 445 359 436 301 L410 162 L410 162 Z " />
<glyph glyph-name="afii10045" unicode="&#x42b;" horiz-adv-x="540" d="M289 456 L214 456 L275 806 L212 806 L71 0 L102 0 L133 0 L217 0 C298 0 376 74 392 167 L414 289 C431 382 374 456 289 456 L289 456 Z M330 167 C325 138 311 112 290 91 C271 73 250 64 228 64 L144 64 L202 392 L277 392 C328 392 361 347 352 289 L330 167 L330 167 Z M398 0 L462 0 L604 808 L540 808 L398 0 Z " />
<glyph glyph-name="afii10046" unicode="&#x42c;" horiz-adv-x="422" d="M289 456 L214 456 L275 806 L212 806 L71 0 L102 0 L133 0 L217 0 C298 0 376 74 392 167 L414 289 C431 382 374 456 289 456 L289 456 Z M330 167 C325 138 311 112 290 91 C271 73 250 64 228 64 L144 64 L202 392 L277 392 C328 392 361 347 352 289 L330 167 L330 167 Z " />
<glyph glyph-name="afii10047" unicode="&#x42d;" horiz-adv-x="497" d="M480 593 L468 529 L450 427 L166 427 L155 364 L439 364 L426 289 L412 209 C397 127 330 60 263 60 C194 60 152 127 167 209 L103 209 C83 92 149 -2 252 -2 C354 -2 454 92 474 209 L488 289 L530 529 L542 593 C563 710 497 805 395 805 C292 805 192 710 172 593 L235 593 C250 676 314 742 383 742 C450 742 494 676 480 593 L480 593 Z " />
<glyph glyph-name="afii10048" unicode="&#x42e;" horiz-adv-x="596" d="M514 805 C432 805 354 731 337 640 L301 430 L187 430 L253 806 L191 806 L49 4 L112 4 L175 367 L289 367 L253 162 C238 71 289 -4 371 -4 C451 -4 530 71 546 162 L630 640 C647 731 594 805 514 805 L514 805 Z M484 162 C474 107 427 59 382 59 C336 59 306 107 316 162 L400 640 C410 695 457 743 503 743 C548 743 578 695 568 640 L484 162 L484 162 Z " />
<glyph glyph-name="afii10049" unicode="&#x42f;" horiz-adv-x="425" d="M179 330 C133 300 97 252 86 197 L52 -1 L115 -1 L150 197 C161 253 216 300 272 300 L368 300 L316 1 L379 1 L432 300 L443 364 L510 745 L521 808 L457 808 L353 808 C266 808 184 734 168 643 L137 466 C127 409 144 360 179 330 L179 330 Z M275 364 C223 364 191 409 200 466 L232 643 C241 700 290 745 342 745 L446 745 L379 364 L275 364 Z " />
<glyph glyph-name="afii10065" unicode="&#x430;" horiz-adv-x="400" d="M329 583 L323 583 L323 583 C257 581 193 526 181 460 L245 460 C251 492 282 518 316 520 C348 518 368 490 362 454 L348 373 C328 394 300 406 268 406 C187 406 108 330 92 239 L79 168 C64 76 116 0 197 0 C229 0 260 12 288 31 L283 0 L346 0 L426 454 C438 523 395 580 329 583 L329 583 Z M310 168 C300 112 253 64 208 64 C163 64 133 112 143 168 L156 239 C166 295 212 342 257 342 C302 342 332 295 323 239 L310 168 Z " />
<glyph glyph-name="afii10066" unicode="&#x431;" horiz-adv-x="418" d="M293 517 C343 517 377 468 366 407 L428 407 C445 503 390 581 305 581 C220 581 136 503 119 407 L80 190 L78 176 L78 173 C61 77 118 0 203 0 C288 0 371 77 388 173 L388 173 C388 174 388 175 388 176 L390 190 C407 281 350 356 265 356 C230 356 197 344 168 323 L182 407 C193 468 242 517 293 517 L293 517 Z M254 293 C305 293 338 246 328 190 L325 176 C316 119 265 72 215 72 C164 72 132 119 142 176 L144 190 C155 246 204 293 254 293 L254 293 Z " />
<glyph glyph-name="afii10067" unicode="&#x432;" horiz-adv-x="352" d="M302 322 C335 349 360 392 368 439 C383 520 340 584 274 584 L154 584 L154 584 L152 584 L112 352 L109 340 L101 287 L98 277 L61 62 L50 0 L50 0 L114 0 L114 0 L181 0 C253 0 323 62 336 139 L347 200 C356 252 337 298 302 322 L302 322 Z M205 520 L263 520 C294 520 314 484 306 439 C298 394 262 352 232 352 L175 352 L205 520 Z M274 139 C266 97 229 62 192 62 L125 62 L162 277 L229 277 C266 277 292 242 284 200 L274 139 Z " />
<glyph glyph-name="afii10068" unicode="&#x433;" horiz-adv-x="365" d="M392 570 L149 570 L49 0 L112 0 L200 508 L382 508 L392 570 L392 570 Z " />
<glyph glyph-name="afii10069" unicode="&#x434;" horiz-adv-x="667" d="M668 632 L334 632 L329 601 C319 546 290 425 246 318 C218 251 164 139 104 139 L73 139 L49 0 L112 0 L125 76 L551 76 L538 0 L601 0 L625 139 L582 139 L668 632 L668 632 Z M305 304 C344 398 372 504 385 569 L595 569 L520 139 L211 139 C244 176 277 232 305 304 L305 304 Z " />
<glyph glyph-name="afii10070" unicode="&#x435;" horiz-adv-x="391" d="M294 583 C214 583 134 504 116 408 L76 175 C59 79 112 0 192 0 C274 0 353 79 370 175 L306 175 C295 115 248 65 203 65 C158 65 128 115 139 175 L160 290 L390 290 L410 408 C428 504 376 583 294 583 L294 583 Z M338 354 L172 354 L180 408 C191 468 239 518 283 518 C329 518 358 468 347 408 L338 354 Z " />
<glyph glyph-name="afii10072" unicode="&#x436;" horiz-adv-x="704" d="M751 583 L674 583 L440 347 L522 806 L458 806 L377 347 L227 583 L150 583 L268 385 L55 1 L127 1 L306 330 L359 242 L317 0 L380 0 L422 242 L506 330 L570 1 L642 1 L564 385 L751 583 L751 583 Z " />
<glyph glyph-name="afii10073" unicode="&#x437;" horiz-adv-x="403" d="M431 444 C446 535 394 610 313 610 L162 610 L151 546 L302 546 C348 546 378 500 368 444 C358 388 312 342 266 342 L151 342 L151 342 L140 280 L139 278 L254 278 C300 278 331 232 320 175 L319 166 C310 109 262 61 216 61 L65 61 L54 -1 L205 -1 C286 -1 365 73 382 166 L383 175 C392 230 378 280 346 311 C389 341 421 389 431 444 L431 444 Z " />
<glyph glyph-name="afii10074" unicode="&#x438;" horiz-adv-x="407" d="M216 584 L152 584 L50 0 L50 0 L97 0 L114 0 L114 0 L118 0 L371 432 L295 1 L359 1 L461 584 L456 584 L397 584 L389 584 L145 178 L216 584 Z " />
<glyph glyph-name="afii10075" unicode="&#x439;" horiz-adv-x="407" d="M145 178 L389 584 L397 584 L456 584 L461 584 L359 1 L295 1 L371 432 L118 0 L114 0 L114 0 L97 0 L50 0 L50 0 L152 584 L216 584 L145 178 Z M328 706 C284 706 254 752 263 809 L200 809 C184 716 237 642 317 642 C399 642 478 716 494 809 L430 809 C420 752 374 706 328 706 L328 706 Z " />
<glyph glyph-name="afii10076" unicode="&#x43a;" horiz-adv-x="414" d="M389 583 L184 328 L228 584 L164 584 L62 1 L126 1 L163 214 L234 299 L286 -2 L371 -2 L293 372 L463 583 L389 583 Z " />
<glyph glyph-name="afii10077" unicode="&#x43b;" horiz-adv-x="610" d="M293 575 L262 575 L193 187 C181 119 133 61 90 61 L59 61 L48 -1 L79 -1 C158 -1 239 83 257 187 L314 511 L558 511 L467 -2 L530 -2 L632 575 L325 575 L293 575 L293 575 Z " />
<glyph glyph-name="afii10078" unicode="&#x43c;" horiz-adv-x="472" d="M439 584 L432 584 L272 278 L220 584 L216 584 L154 584 L154 588 L152 584 L50 0 L114 0 L188 422 L221 173 L224 148 L275 148 L287 173 L412 428 L337 0 L400 0 L502 584 L498 584 L439 584 Z " />
<glyph glyph-name="afii10079" unicode="&#x43d;" horiz-adv-x="384" d="M316 305 L161 305 L212 593 L149 593 L44 0 L108 0 L150 242 L305 242 L263 0 L326 0 L431 593 L367 593 L316 305 Z " />
<glyph glyph-name="afii10080" unicode="&#x43e;" horiz-adv-x="391" d="M300 582 C220 582 140 508 125 416 L80 167 C65 76 118 1 198 1 C280 1 359 76 374 167 L419 416 C434 508 382 582 300 582 L300 582 Z M311 167 C301 112 254 64 209 64 C164 64 134 112 144 167 L188 416 C198 472 245 520 289 520 C335 520 365 472 355 416 L311 167 Z " />
<glyph glyph-name="afii10081" unicode="&#x43f;" horiz-adv-x="440" d="M485 584 L140 584 L41 0 L104 0 L196 522 L410 522 L319 0 L383 0 L485 584 Z " />
<glyph glyph-name="afii10082" unicode="&#x440;" horiz-adv-x="396" d="M299 582 C268 582 236 571 211 552 L216 583 L152 583 L124 415 L79 167 L16 -193 L79 -193 L119 30 C138 11 166 0 197 0 C278 0 359 85 376 178 L418 415 C433 508 380 582 299 582 L299 582 Z M310 167 C300 110 253 62 208 62 C163 62 133 110 143 167 L187 415 C197 472 244 518 288 518 C334 518 364 472 354 415 L310 167 Z " />
<glyph glyph-name="afii10083" unicode="&#x441;" horiz-adv-x="352" d="M288 520 C312 520 332 506 343 482 L403 518 C382 559 344 583 299 583 C218 583 139 506 122 410 L80 173 C64 78 116 1 197 1 C241 1 286 24 322 64 L276 100 C256 77 232 64 208 64 C163 64 133 114 144 173 L186 410 C197 470 244 520 288 520 L288 520 Z " />
<glyph glyph-name="afii10084" unicode="&#x442;" horiz-adv-x="347" d="M142 520 L239 520 L148 1 L210 1 L301 520 L397 520 L408 583 L152 583 L142 520 Z " />
<glyph glyph-name="afii10085" unicode="&#x443;" horiz-adv-x="398" d="M377 548 L310 168 C300 112 253 64 208 64 C163 64 133 112 143 168 L216 583 L152 583 L79 168 C64 76 116 1 197 1 C228 1 258 12 286 31 L281 1 C270 -58 223 -108 178 -108 C156 -108 142 -97 133 -88 L82 -134 C103 -158 133 -172 166 -172 C247 -172 328 -94 344 1 L373 168 L440 548 L446 583 L383 583 L377 548 Z " />
<glyph glyph-name="afii10086" unicode="&#x444;" horiz-adv-x="620" d="M528 560 C498 560 468 550 443 533 L493 821 L430 821 L378 526 C356 547 328 560 294 560 C214 560 134 486 118 394 L79 176 C64 84 116 10 197 10 C230 10 264 23 293 44 L256 -169 L319 -169 L355 37 C374 19 401 10 431 10 C511 10 590 84 606 176 L644 394 C661 486 608 560 528 560 L528 560 Z M310 176 C300 120 253 73 208 73 C162 73 132 120 142 176 L180 394 C191 450 236 497 282 497 C328 497 359 450 348 394 L310 176 L310 176 Z M542 176 C533 120 486 73 442 73 C403 73 377 104 374 148 L424 422 C440 466 478 497 516 497 C560 497 592 450 581 394 L542 176 L542 176 Z " />
<glyph glyph-name="afii10087" unicode="&#x445;" horiz-adv-x="466" d="M508 583 L438 583 L308 382 L248 583 L179 583 L260 308 L62 0 L132 0 L283 234 L353 0 L422 0 L331 308 L508 583 Z " />
<glyph glyph-name="afii10088" unicode="&#x446;" horiz-adv-x="551" d="M499 578 L436 578 L344 60 L329 60 L121 60 L212 578 L150 578 L48 -2 L318 -2 L397 -2 L433 -2 L414 -115 L476 -115 L506 60 L408 60 L499 578 L499 578 Z " />
<glyph glyph-name="afii10089" unicode="&#x447;" horiz-adv-x="442" d="M430 580 L382 311 C372 254 317 208 259 208 L251 208 C194 208 156 254 166 311 L220 618 L157 618 L103 311 C88 220 149 145 240 145 L248 145 C288 145 326 158 359 181 L326 -2 L389 -2 L444 311 L492 580 L496 605 L433 605 L430 580 L430 580 Z " />
<glyph glyph-name="afii10090" unicode="&#x448;" horiz-adv-x="620" d="M493 60 L340 60 L432 582 L368 582 L276 60 L121 60 L214 580 L151 580 L48 -2 L546 -2 L649 580 L586 580 L493 60 L493 60 Z " />
<glyph glyph-name="afii10091" unicode="&#x449;" horiz-adv-x="683" d="M649 580 L586 580 L493 60 L485 60 L340 60 L432 582 L368 582 L276 60 L121 60 L214 580 L151 580 L48 -2 L474 -2 L546 -2 L589 -2 L570 -115 L634 -115 L664 60 L557 60 L649 580 L649 580 Z " />
<glyph glyph-name="afii10092" unicode="&#x44a;" horiz-adv-x="520" d="M349 338 L274 338 L326 635 L161 635 L149 571 L252 571 L151 -2 L182 -2 L182 -4 L298 -4 C378 -4 457 71 473 162 L475 172 C491 263 436 338 349 338 L349 338 Z M410 162 C401 107 354 59 308 59 L224 59 L263 275 L338 275 C390 275 422 228 413 172 L410 162 L410 162 Z " />
<glyph glyph-name="afii10093" unicode="&#x44b;" horiz-adv-x="497" d="M256 408 L180 408 L212 590 L150 590 L47 0 L78 0 L109 0 L193 0 C274 0 352 74 368 167 L382 241 C398 334 341 408 256 408 L256 408 Z M306 167 C301 138 287 112 266 91 C247 73 226 64 204 64 L120 64 L169 344 L245 344 C295 344 329 299 319 241 L306 167 Z M374 0 L438 0 L541 592 L478 592 L374 0 Z " />
<glyph glyph-name="afii10094" unicode="&#x44c;" horiz-adv-x="402" d="M288 468 L211 468 L272 811 L209 809 L66 -5 L97 -5 L96 -7 L211 -7 C293 -7 373 68 389 160 L414 301 C430 394 373 468 288 468 L288 468 Z M325 160 C316 103 269 56 223 56 L139 56 L200 406 L277 406 C328 406 360 359 350 301 L325 160 L325 160 Z " />
<glyph glyph-name="afii10095" unicode="&#x44d;" horiz-adv-x="428" d="M380 466 L368 398 L358 338 L152 338 L142 276 L347 276 L338 228 L326 163 C317 108 270 60 224 60 C179 60 149 108 158 163 L95 163 C79 72 132 -2 214 -2 C294 -2 373 72 389 163 L401 228 L431 398 L443 466 C458 557 406 631 325 631 C244 631 164 557 149 466 L212 466 C222 521 269 569 314 569 C360 569 390 521 380 466 L380 466 Z " />
<glyph glyph-name="afii10096" unicode="&#x44e;" horiz-adv-x="546" d="M460 618 C383 618 307 544 292 451 L271 340 L170 340 L221 623 L158 623 L49 4 L112 4 L160 277 L260 277 L242 172 C226 79 275 5 352 5 C428 5 504 79 521 172 L570 451 C586 544 536 618 460 618 L460 618 Z M457 172 C446 115 404 68 364 68 C323 68 295 115 306 172 L355 451 C365 508 408 554 449 554 C490 554 516 508 506 451 L457 172 L457 172 Z " />
<glyph glyph-name="afii10097" unicode="&#x44f;" horiz-adv-x="368" d="M150 251 C112 221 82 173 72 120 L50 -1 L113 -1 L134 120 C144 176 190 223 234 223 L302 223 L264 1 L328 1 L419 521 L419 521 L430 584 L287 584 C215 584 144 521 131 444 L116 364 C108 318 122 277 150 251 L150 251 Z M235 287 C198 287 173 322 180 364 L194 444 C202 487 239 521 276 521 L355 521 L314 287 L235 287 Z " />
<glyph glyph-name="afii10071" unicode="&#x451;" horiz-adv-x="391" d="M311 583 C230 583 151 504 133 408 L92 175 C76 79 128 0 209 0 C290 0 370 79 386 175 L323 175 C312 115 265 65 220 65 C175 65 145 115 156 175 L176 290 L407 290 L427 408 C445 504 392 583 311 583 L311 583 Z M355 354 L188 354 L197 408 C208 468 256 518 300 518 C346 518 374 468 364 408 L355 354 Z M343 652 L402 652 L413 712 L354 712 L343 652 L343 652 Z M249 652 L308 652 L319 712 L260 712 L249 652 L249 652 Z " />
<glyph glyph-name="afii10099" unicode="&#x452;" horiz-adv-x="472" d="M380 568 C349 568 318 556 290 538 L312 656 L450 656 L461 720 L323 720 L336 793 L272 793 L259 720 L193 720 L182 656 L248 656 L203 401 L137 24 L132 -1 L196 -1 L200 24 L266 401 C277 457 324 504 370 504 C414 504 444 457 433 401 L370 40 C360 -18 310 -65 257 -65 L246 -127 C334 -127 418 -53 433 40 L497 401 C514 492 461 568 380 568 L380 568 Z " />
<glyph glyph-name="afii10100" unicode="&#x453;" horiz-adv-x="319" d="M406 583 L143 583 L143 581 L132 521 L41 0 L103 0 L194 521 L395 521 L406 583 L406 583 Z M254 670 L296 670 L338 759 L285 759 L254 670 L254 670 Z " />
<glyph glyph-name="afii10101" unicode="&#x454;" horiz-adv-x="386" d="M121 444 C112 389 127 341 158 311 C116 280 83 230 73 175 L72 166 C55 73 108 -1 188 -1 L340 -1 L350 61 L199 61 C154 61 125 109 134 166 L136 175 C146 232 192 278 238 278 L353 278 L354 280 L365 342 L365 342 L250 342 C204 342 173 388 184 444 C193 500 240 546 286 546 L437 546 L448 610 L296 610 C216 610 137 535 121 444 L121 444 Z " />
<glyph glyph-name="afii10102" unicode="&#x455;" horiz-adv-x="368" d="M275 320 C232 362 194 400 206 458 C212 492 250 518 290 518 C318 518 341 504 349 481 L410 512 C394 556 353 583 301 583 C226 583 156 528 143 460 C126 370 179 317 226 270 C269 227 306 190 294 128 C284 77 242 66 210 66 C180 66 157 83 150 108 L88 83 C100 34 144 1 199 1 C280 1 342 50 356 126 C376 220 323 272 275 320 L275 320 Z " />
<glyph glyph-name="afii10103" unicode="&#x456;" horiz-adv-x="190" d="M62 0 L126 0 L228 583 L164 583 L62 0 L62 0 Z M176 653 L240 653 L252 720 L188 720 L176 653 L176 653 Z " />
<glyph glyph-name="afii10104" unicode="&#x457;" horiz-adv-x="220" d="M62 0 L126 0 L228 583 L164 583 L62 0 L62 0 Z M228 701 L287 701 L298 761 L239 761 L228 701 L228 701 Z M134 701 L193 701 L204 761 L145 761 L134 701 L134 701 Z " />
<glyph glyph-name="afii10105" unicode="&#x458;" horiz-adv-x="227" d="M203 653 L266 653 L278 720 L215 720 L203 653 Z M89 2 C78 -58 31 -107 -13 -107 C-35 -107 -50 -96 -58 -86 L-110 -140 C-89 -164 -58 -170 -25 -170 C55 -170 136 -92 152 2 L254 583 L191 583 L89 2 Z " />
<glyph glyph-name="afii10106" unicode="&#x459;" horiz-adv-x="718" d="M578 468 L494 468 L523 629 L338 628 L248 116 C241 78 211 61 186 61 C174 61 163 66 157 73 C150 83 146 97 150 116 L88 116 C79 71 92 43 106 29 C121 8 146 -2 175 -2 C230 -2 296 40 311 116 L390 565 L449 565 L348 -2 L380 -2 L380 -4 L496 -4 C576 -4 655 71 671 163 L696 301 C712 394 659 468 578 468 L578 468 Z M608 163 C599 107 552 60 506 60 L422 60 L484 406 L568 406 C613 406 643 358 634 301 L608 163 L608 163 Z " />
<glyph glyph-name="afii10107" unicode="&#x45a;" horiz-adv-x="704" d="M577 468 L514 468 L540 617 L476 617 L450 468 L372 468 L398 618 L336 618 L248 116 C241 78 211 61 186 61 C174 61 163 66 157 73 C150 83 146 97 150 116 L88 116 C79 71 92 43 106 28 C121 8 146 -2 175 -2 C230 -2 296 40 311 116 L361 406 L439 406 L367 -2 L398 -2 L398 -4 L515 -4 C595 -4 674 71 690 163 L715 301 C731 394 670 468 577 468 L577 468 Z M626 163 C617 107 570 60 526 60 L442 60 L503 406 L566 406 C624 406 661 359 652 301 L626 163 L626 163 Z " />
<glyph glyph-name="afii10108" unicode="&#x45b;" horiz-adv-x="470" d="M368 568 C337 568 306 556 278 538 L302 668 L440 668 L451 732 L313 732 L326 805 L263 805 L250 732 L184 732 L173 668 L239 668 L191 401 L125 22 L120 -4 L184 -4 L188 22 L254 401 C265 457 312 504 358 504 C402 504 432 457 421 401 L352 0 L415 0 L485 401 C502 492 449 568 368 568 L368 568 Z " />
<glyph glyph-name="afii10109" unicode="&#x45c;" horiz-adv-x="414" d="M389 583 L184 328 L228 584 L164 584 L62 1 L126 1 L163 214 L234 299 L286 -2 L371 -2 L293 372 L463 583 L389 583 Z M292 684 L334 684 L376 773 L323 773 L292 684 L292 684 Z " />
<glyph glyph-name="afii10110" unicode="&#x45e;" horiz-adv-x="398" d="M377 548 L310 168 C300 112 253 64 208 64 C163 64 133 112 143 168 L216 583 L152 583 L79 168 C64 76 116 1 197 1 C228 1 258 12 286 31 L281 1 C270 -58 223 -108 178 -108 C156 -108 142 -97 133 -88 L82 -134 C103 -158 133 -172 166 -172 C247 -172 328 -94 344 1 L373 168 L440 548 L446 583 L383 583 L377 548 Z M322 706 C278 706 248 752 257 809 L194 809 C178 716 231 642 311 642 C393 642 472 716 488 809 L424 809 C414 752 368 706 322 706 L322 706 Z " />
<glyph glyph-name="afii10193" unicode="&#x45f;" horiz-adv-x="547" d="M457 236 L170 236 L238 613 L175 613 L97 173 L271 173 L240 -1 L304 -1 L335 173 L510 173 L589 620 L526 620 L457 236 L457 236 Z " />
<glyph glyph-name="afii10050" unicode="&#x490;" horiz-adv-x="488" d="M503 728 L196 728 L66 -2 L128 -2 L246 666 L553 666 L578 806 L516 806 L503 728 L503 728 Z " />
<glyph glyph-name="afii10098" unicode="&#x491;" horiz-adv-x="481" d="M481 606 L174 606 L65 -12 L127 -12 L224 542 L532 542 L557 683 L494 683 L481 606 L481 606 Z " />
<glyph glyph-name="endash" unicode="&#x2013;" horiz-adv-x="454" d="M97 371 L482 371 L493 433 L108 433 L97 371 Z " />
<glyph glyph-name="emdash" unicode="&#x2014;" horiz-adv-x="643" d="M102 376 L679 376 L690 439 L113 439 L102 376 Z " />
<glyph glyph-name="afii00208" unicode="&#x2015;" horiz-adv-x="643" d="M102 376 L679 376 L690 439 L113 439 L102 376 Z " />
<glyph glyph-name="quoteleft" unicode="&#x2018;" horiz-adv-x="154" d="M182 764 L173 709 L232 709 L241 764 L215 764 L215 764 C220 790 236 788 236 788 L240 809 C188 809 182 764 182 764 L182 764 Z " />
<glyph glyph-name="quoteright" unicode="&#x2019;" horiz-adv-x="148" d="M185 730 L181 709 C233 709 239 754 239 754 L248 809 L190 809 L180 754 L206 754 L206 754 C203 728 185 730 185 730 L185 730 Z " />
<glyph glyph-name="quotesinglbase" unicode="&#x201a;" horiz-adv-x="152" d="M116 55 L58 55 L48 0 L74 0 L74 0 C70 -26 52 -24 52 -24 L48 -44 C100 -44 107 0 107 0 L116 55 Z " />
<glyph glyph-name="quotedblleft" unicode="&#x201c;" horiz-adv-x="238" d="M260 764 L251 709 L310 709 L319 764 L293 764 L293 764 C298 790 313 788 313 788 L317 809 C266 809 260 764 260 764 L260 764 Z M182 764 L173 709 L232 709 L241 764 L215 764 L215 764 C220 790 236 788 236 788 L240 809 C188 809 182 764 182 764 L182 764 Z " />
<glyph glyph-name="quotedblright" unicode="&#x201d;" horiz-adv-x="223" d="M248 809 L190 809 L180 754 L206 754 L206 754 C203 728 185 730 185 730 L181 709 C233 709 239 754 239 754 L248 809 L248 809 Z M263 730 L259 709 C311 709 317 754 317 754 L326 809 L268 809 L258 754 L284 754 L284 754 C281 728 263 730 263 730 L263 730 Z " />
<glyph glyph-name="quotedblbase" unicode="&#x201e;" horiz-adv-x="229" d="M197 55 L138 55 L128 0 L154 0 L154 0 C149 -26 132 -24 132 -24 L128 -44 C179 -44 187 0 187 0 L197 55 L197 55 Z M116 55 L58 55 L48 0 L74 0 L74 0 C70 -26 52 -24 52 -24 L48 -44 C100 -44 107 0 107 0 L116 55 L116 55 Z " />
<glyph glyph-name="dagger" unicode="&#x2020;" horiz-adv-x="396" d="M377 805 L314 805 L281 617 L144 617 L133 554 L270 554 L173 0 L235 0 L332 554 L457 554 L468 617 L343 617 L377 805 L377 805 Z " />
<glyph glyph-name="daggerdbl" unicode="&#x2021;" horiz-adv-x="398" d="M377 805 L314 805 L281 617 L144 617 L133 554 L270 554 L245 409 L108 409 L96 346 L233 346 L173 0 L235 0 L295 346 L420 346 L432 409 L307 409 L332 554 L457 554 L468 617 L343 617 L377 805 L377 805 Z " />
<glyph glyph-name="bullet" unicode="&#x2022;" horiz-adv-x="169" d="M164 457 C145 457 126 442 124 422 C120 403 132 388 151 388 C170 388 190 403 193 422 C196 442 184 457 164 457 L164 457 Z " />
<glyph glyph-name="onedotenleader" unicode="&#x2024;" horiz-adv-x="142" d="M36 -1 L95 -1 L106 58 L47 58 L36 -1 L36 -1 Z " />
<glyph glyph-name="twodotenleader" unicode="&#x2025;" horiz-adv-x="283" d="M36 -1 L95 -1 L106 58 L47 58 L36 -1 L36 -1 Z M178 -1 L236 -1 L247 58 L188 58 L178 -1 L178 -1 Z " />
<glyph glyph-name="ellipsis" unicode="&#x2026;" horiz-adv-x="349" d="M47 -1 L106 -1 L116 59 L58 59 L47 -1 L47 -1 Z M144 -1 L203 -1 L214 59 L155 59 L144 -1 L144 -1 Z M240 -1 L299 -1 L310 59 L251 59 L240 -1 L240 -1 Z " />
<glyph glyph-name="perthousand" unicode="&#x2030;" horiz-adv-x="1171" d="M422 528 L439 624 C456 715 403 790 322 790 C241 790 162 715 145 624 L128 528 C113 437 166 361 246 361 C328 361 407 437 422 528 L422 528 Z M359 528 C349 472 302 425 257 425 C212 425 182 472 192 528 L209 624 C218 679 265 727 310 727 C355 727 385 679 376 624 L359 528 L359 528 Z M700 443 C619 443 540 368 523 276 L506 181 C491 89 544 14 624 14 C706 14 785 89 800 181 L817 276 C834 368 781 443 700 443 L700 443 Z M737 181 C727 125 680 77 635 77 C589 77 559 125 569 181 L586 276 C595 332 642 379 688 379 C733 379 763 332 754 276 L737 181 L737 181 Z M1042 443 C961 443 882 368 865 276 L848 181 C833 89 886 14 966 14 C1048 14 1127 89 1142 181 L1159 276 C1176 368 1123 443 1042 443 L1042 443 Z M1079 181 C1069 125 1022 77 977 77 C931 77 901 125 911 181 L928 276 C937 332 984 379 1030 379 C1075 379 1105 332 1096 276 L1079 181 L1079 181 Z M672 805 L246 0 L325 0 L751 805 L672 805 L672 805 Z " />
<glyph glyph-name="guilsinglleft" unicode="&#x2039;" horiz-adv-x="283" d="M286 600 L116 389 L210 173 L270 206 L191 389 L334 566 L286 600 Z " />
<glyph glyph-name="guilsinglright" unicode="&#x203a;" horiz-adv-x="290" d="M148 566 L228 389 L84 206 L132 173 L302 389 L208 600 L148 566 L148 566 Z " />
<glyph glyph-name="fraction" unicode="&#x2044;" horiz-adv-x="454" d="M48 0 L127 0 L552 805 L474 805 L48 0 Z " />
<glyph glyph-name="zerosuperior" unicode="&#x2070;" horiz-adv-x="349" d="M350 918 L317 918 C268 918 222 878 214 830 L167 570 C158 521 191 481 240 481 L274 481 C323 481 370 521 378 570 L425 830 C433 878 400 918 350 918 L350 918 Z M319 570 C317 553 301 540 284 540 L251 540 C234 540 223 553 226 570 L272 830 C275 846 290 859 307 859 L341 859 C358 859 368 846 366 830 L319 570 L319 570 Z " />
<glyph glyph-name="foursuperior" unicode="&#x2074;" horiz-adv-x="336" d="M414 918 L360 918 L176 622 L304 622 L278 480 L337 480 L362 622 L396 622 L406 680 L372 680 L414 918 L414 918 Z M313 680 L277 680 L329 763 L313 680 L313 680 Z " />
<glyph glyph-name="fivesuperior" unicode="&#x2075;" horiz-adv-x="323" d="M343 788 C326 802 305 808 277 804 L287 858 L382 858 L391 917 L238 917 L204 725 L246 739 C271 748 292 749 301 740 C317 727 320 691 311 640 C306 610 290 539 257 539 C246 539 238 547 233 562 C229 572 228 584 230 598 L172 598 C168 575 169 553 175 535 C186 500 212 480 246 480 C282 480 346 500 370 640 C383 714 374 763 343 788 L343 788 Z " />
<glyph glyph-name="sixsuperior" unicode="&#x2076;" horiz-adv-x="306" d="M306 859 C319 859 330 842 326 818 L385 818 C395 874 365 919 317 919 C269 919 221 874 211 818 L188 690 L169 582 L168 575 C164 554 168 535 176 521 C187 497 210 481 239 481 C266 481 294 497 314 521 C329 535 338 554 342 575 L362 690 C371 739 340 779 292 779 C281 779 271 776 262 774 L270 818 C274 842 292 859 306 859 L306 859 Z M281 720 C296 720 306 707 304 690 L284 582 C282 571 278 563 272 556 C266 548 259 545 251 545 C242 545 234 548 230 556 C227 563 226 571 228 582 L247 690 C250 707 265 720 281 720 L281 720 Z " />
<glyph glyph-name="sevensuperior" unicode="&#x2077;" horiz-adv-x="334" d="M228 917 L218 858 L331 858 C287 791 209 654 178 480 L236 480 C276 707 407 871 408 872 L444 917 L228 917 L228 917 Z " />
<glyph glyph-name="eightsuperior" unicode="&#x2078;" horiz-adv-x="334" d="M361 763 C377 780 389 800 394 824 C402 875 371 917 323 917 C275 917 229 875 221 824 C216 800 221 780 232 763 C209 746 194 724 190 697 L167 569 C158 520 191 480 240 480 L252 480 C301 480 348 520 356 569 L379 697 C384 724 376 746 361 763 L361 763 Z M313 858 C328 858 337 842 335 824 C331 805 316 791 301 791 C286 791 276 805 280 824 C282 842 298 858 313 858 L313 858 Z M298 569 C295 552 280 539 263 539 L251 539 C234 539 223 552 226 569 L248 697 C251 714 266 727 283 727 L295 727 C312 727 323 714 320 697 L298 569 L298 569 Z " />
<glyph glyph-name="ninesuperior" unicode="&#x2079;" horiz-adv-x="300" d="M316 917 C316 917 316 917 316 917 C316 917 316 917 316 917 L316 917 C268 917 221 877 212 829 L192 713 C184 664 216 624 264 624 C274 624 283 625 293 629 L284 581 C280 556 263 539 250 539 C235 539 223 556 228 581 L169 581 C160 526 191 480 239 480 C287 480 334 526 343 581 L366 713 L384 816 L386 829 C395 877 364 917 316 917 L316 917 Z M275 683 C259 683 248 696 251 713 L269 816 C274 841 292 858 306 858 C306 858 306 858 306 858 C319 858 330 841 325 816 L307 713 C305 696 290 683 275 683 L275 683 Z " />
<glyph glyph-name="parenleftsuperior" unicode="&#x207d;" horiz-adv-x="164" d="M239 864 C140 706 107 519 150 360 C167 360 175 360 192 360 C151 519 184 706 281 864 C264 864 256 864 239 864 L239 864 Z " />
<glyph glyph-name="parenrightsuperior" unicode="&#x207e;" horiz-adv-x="208" d="M210 864 C253 706 220 519 121 360 C138 360 147 360 165 360 C264 519 296 706 254 864 C236 864 227 864 210 864 L210 864 Z " />
<glyph glyph-name="nsuperior" unicode="&#x207f;" horiz-adv-x="338" d="M318 812 C294 812 271 804 250 789 L254 812 L204 812 L182 683 L125 360 L175 360 L231 683 C239 727 276 764 310 764 C345 764 369 727 361 683 L304 360 L353 360 L410 683 C422 755 381 812 318 812 L318 812 Z " />
<glyph glyph-name="zeroinferior" unicode="&#x2080;" horiz-adv-x="349" d="M241 295 L208 295 C158 295 112 256 103 208 L58 -53 C49 -102 82 -142 131 -142 L164 -142 C214 -142 260 -102 269 -53 L314 208 C323 256 290 295 241 295 L241 295 Z M210 -53 C206 -70 191 -83 174 -83 L140 -83 C124 -83 113 -70 116 -53 L162 208 C164 223 180 236 197 236 L230 236 C247 236 258 223 256 208 L210 -53 L210 -53 Z " />
<glyph glyph-name="oneinferior" unicode="&#x2081;" horiz-adv-x="281" d="M245 296 L164 296 L109 244 L148 205 L173 229 L108 -142 L168 -142 L245 295 L244 295 L245 296 L245 296 Z " />
<glyph glyph-name="twoinferior" unicode="&#x2082;" horiz-adv-x="317" d="M290 185 C300 247 266 295 214 295 C161 295 109 245 98 179 L157 179 C163 212 186 236 203 236 C223 236 235 214 230 185 C221 128 188 96 150 56 C108 14 60 -34 47 -113 L42 -142 L217 -142 L227 -83 L113 -83 C127 -42 156 -13 188 19 C229 61 276 108 290 185 L290 185 Z " />
<glyph glyph-name="threeinferior" unicode="&#x2083;" horiz-adv-x="325" d="M134 295 L124 236 L196 236 L92 121 L150 121 C210 121 206 54 199 13 C188 -49 162 -83 146 -83 C130 -83 115 -59 121 -25 L62 -25 C50 -90 84 -142 137 -142 C185 -142 241 -94 259 13 C276 103 248 151 208 169 L320 295 L134 295 L134 295 Z " />
<glyph glyph-name="fourinferior" unicode="&#x2084;" horiz-adv-x="336" d="M305 296 L251 296 L67 0 L194 0 L169 -142 L228 -142 L253 0 L287 0 L296 59 L263 59 L305 296 L305 296 Z M204 59 L168 59 L218 142 L204 59 L204 59 Z " />
<glyph glyph-name="fiveinferior" unicode="&#x2085;" horiz-adv-x="323" d="M234 167 C217 180 196 186 167 182 L176 236 L271 236 L282 295 L128 295 L95 103 L137 118 C162 126 181 127 192 119 C208 106 211 70 202 18 C197 -12 180 -83 146 -83 C136 -83 128 -74 124 -60 C119 -49 119 -37 121 -24 L62 -24 C59 -47 59 -68 66 -86 C77 -121 103 -142 137 -142 C173 -142 236 -121 260 18 C274 92 264 142 234 167 L234 167 Z " />
<glyph glyph-name="sixinferior" unicode="&#x2086;" horiz-adv-x="306" d="M196 236 C209 236 221 220 216 196 L275 196 C284 251 254 296 206 296 C158 296 110 251 101 196 L78 67 L60 -41 L58 -48 C54 -68 59 -88 67 -102 C78 -126 101 -142 130 -142 C157 -142 185 -126 205 -102 C220 -88 228 -68 232 -48 L252 67 C262 116 229 156 181 156 C170 156 161 154 152 151 L160 196 C164 220 181 236 196 236 L196 236 Z M172 97 C187 97 197 84 193 67 L175 -41 C173 -52 169 -60 163 -67 C157 -74 149 -78 140 -78 C132 -78 125 -74 121 -67 C118 -60 116 -52 119 -41 L137 67 C140 84 156 97 172 97 L172 97 Z " />
<glyph glyph-name="seveninferior" unicode="&#x2087;" horiz-adv-x="334" d="M119 295 L108 236 L221 236 C176 169 98 32 68 -142 L127 -142 C167 85 296 250 298 251 L335 295 L119 295 L119 295 Z " />
<glyph glyph-name="eightinferior" unicode="&#x2088;" horiz-adv-x="334" d="M251 142 C268 158 280 179 283 203 C293 253 262 295 214 295 C166 295 120 253 110 203 C107 179 112 158 121 142 C100 125 84 102 80 76 L58 -53 C49 -102 82 -142 131 -142 L143 -142 C192 -142 239 -102 247 -53 L270 76 C274 102 266 125 251 142 L251 142 Z M203 236 C217 236 228 221 224 203 C221 184 205 169 191 169 C175 169 166 184 169 203 C173 221 187 236 203 236 L203 236 Z M188 -53 C185 -70 169 -83 152 -83 L140 -83 C124 -83 113 -70 116 -53 L139 76 C142 92 157 106 174 106 L186 106 C203 106 214 92 211 76 L188 -53 L188 -53 Z " />
<glyph glyph-name="nineinferior" unicode="&#x2089;" horiz-adv-x="300" d="M206 295 C206 295 206 295 206 295 C206 295 206 295 206 295 L206 295 C158 295 112 256 103 208 L83 91 C74 42 107 2 155 2 C164 2 174 4 184 7 L175 -41 C170 -66 152 -83 139 -83 C125 -83 114 -66 119 -41 L60 -41 C49 -96 82 -142 130 -142 C178 -142 223 -96 234 -41 L257 91 L275 194 L277 208 C286 256 254 295 206 295 L206 295 Z M164 61 C149 61 138 74 142 91 L160 194 C164 220 181 236 196 236 C196 236 196 236 196 236 C209 236 221 220 216 194 L198 91 C194 74 180 61 164 61 L164 61 Z " />
<glyph glyph-name="parenleftinferior" unicode="&#x208d;" horiz-adv-x="184" d="M159 360 C78 229 51 74 86 -56 C101 -56 108 -56 122 -56 C87 74 114 229 195 360 C181 360 174 360 159 360 L159 360 Z " />
<glyph glyph-name="parenrightinferior" unicode="&#x208e;" horiz-adv-x="172" d="M120 360 C155 229 128 74 47 -56 C61 -56 68 -56 82 -56 C163 74 191 229 155 360 C141 360 134 360 120 360 L120 360 Z " />
<glyph glyph-name="colonmonetary" unicode="&#x20a1;" horiz-adv-x="445" d="M10 -60 L65 -60 L449 853 L395 853 L10 -60 L10 -60 Z M118 -60 L173 -60 L557 853 L503 853 L118 -60 Z M347 749 L355 749 C383 749 406 738 422 718 C432 704 439 688 440 670 L504 686 C502 715 491 740 474 762 C449 794 410 811 366 811 L358 811 C265 811 176 734 160 640 L78 173 C61 78 122 0 215 0 L223 0 C294 0 364 47 400 114 L343 136 C322 92 277 64 234 64 L226 64 C168 64 131 113 142 173 L223 640 C234 700 289 749 347 749 L347 749 Z " />
<glyph glyph-name="Euro" unicode="&#x20ac;" horiz-adv-x="484" d="M384 713 L394 713 C451 713 488 666 479 608 L542 608 C558 701 497 775 404 775 L395 775 C304 775 216 701 200 608 L181 503 L136 503 L125 440 L170 440 L152 337 L107 337 L96 275 L142 275 L122 166 C106 74 168 0 259 0 L269 0 C361 0 448 74 464 166 L401 166 C391 109 337 62 280 62 L270 62 C214 62 175 109 185 166 L204 275 L432 275 L443 337 L215 337 L233 440 L461 440 L472 503 L244 503 L263 608 C272 666 328 713 384 713 L384 713 Z " />
<glyph glyph-name="afii61352" unicode="&#x2116;" horiz-adv-x="821" d="M502 809 L389 168 L276 809 L264 809 L202 809 L60 0 L124 0 L238 649 L352 0 L371 0 L373 1 L416 14 L371 0 L422 0 L564 809 L502 809 Z M767 786 C686 786 607 712 592 620 L547 371 C532 280 584 205 665 205 C746 205 826 280 841 371 L886 620 C901 712 848 786 767 786 L767 786 Z M778 371 C768 316 721 268 676 268 C631 268 601 316 611 371 L655 620 C665 676 712 724 756 724 C802 724 832 676 822 620 L778 371 Z M492 95 L818 95 L830 157 L504 157 L492 95 Z " />
<glyph glyph-name="trademark" unicode="&#x2122;" horiz-adv-x="383" d="M167 773 L215 773 L167 498 L203 498 L251 773 L295 773 L301 809 L173 809 L167 773 L167 773 Z M355 809 L355 809 L320 809 L320 809 L320 809 L265 497 L301 497 L336 688 L352 586 L380 586 L432 690 L397 497 L433 497 L488 809 L488 809 L452 809 L377 659 L355 809 Z " />
<glyph glyph-name="onethird" unicode="&#x2153;" horiz-adv-x="568" d="M300 810 L220 810 L164 757 L202 719 L228 743 L162 372 L222 372 L299 809 L298 809 L300 810 Z M430 437 L419 378 L491 378 L388 263 L445 263 C505 263 502 196 494 155 C484 92 457 59 442 59 C425 59 410 83 416 116 L358 116 C346 52 379 0 432 0 C480 0 536 48 554 155 C570 245 544 293 503 311 L616 437 L430 437 Z M73 0 L152 0 L577 805 L499 805 L73 0 Z " />
<glyph glyph-name="twothirds" unicode="&#x2154;" horiz-adv-x="625" d="M466 437 L455 378 L527 378 L424 263 L481 263 C541 263 538 196 530 155 C520 92 493 59 478 59 C461 59 446 83 452 116 L394 116 C382 52 415 0 468 0 C516 0 572 48 590 155 C606 245 580 293 539 311 L652 437 L466 437 Z M344 697 C354 760 320 808 268 808 C215 808 164 757 152 691 L211 691 C217 725 241 749 258 749 C278 749 289 726 284 697 C276 641 242 608 204 569 C162 527 114 479 101 400 L96 371 L271 371 L282 430 L168 430 C182 470 210 499 244 532 C284 574 331 620 344 697 L344 697 Z M108 0 L187 0 L612 805 L534 805 L108 0 Z " />
<glyph glyph-name="oneeighth" unicode="&#x215b;" horiz-adv-x="524" d="M504 283 C521 300 533 320 536 344 C546 395 515 437 467 437 C419 437 373 395 364 344 C360 320 365 300 374 283 C353 266 337 244 332 217 L311 89 C301 40 335 0 384 0 L396 0 C445 0 491 40 500 89 L522 217 C527 244 520 266 504 283 L504 283 Z M456 378 C470 378 481 362 478 344 C474 325 458 311 444 311 C428 311 419 325 422 344 C426 362 440 378 456 378 L456 378 Z M442 89 C438 72 422 59 406 59 L394 59 C377 59 366 72 370 89 L391 217 C395 234 410 247 427 247 L439 247 C456 247 467 234 463 217 L442 89 Z M300 810 L220 810 L164 757 L202 719 L228 743 L162 372 L222 372 L299 809 L298 809 L300 810 Z M60 0 L139 0 L564 805 L486 805 L60 0 Z " />
<glyph glyph-name="threeeighths" unicode="&#x215c;" horiz-adv-x="524" d="M528 283 C545 300 557 320 560 344 C570 395 539 437 491 437 C443 437 397 395 388 344 C384 320 389 300 398 283 C377 266 361 244 356 217 L335 89 C325 40 359 0 408 0 L420 0 C469 0 515 40 524 89 L546 217 C551 244 544 266 528 283 L528 283 Z M480 378 C494 378 505 362 502 344 C498 325 482 311 468 311 C452 311 443 325 446 344 C450 362 464 378 480 378 L480 378 Z M466 89 C462 72 446 59 430 59 L418 59 C401 59 390 72 394 89 L415 217 C419 234 434 247 451 247 L463 247 C480 247 491 234 487 217 L466 89 Z M176 810 L166 751 L238 751 L134 636 L192 636 C252 636 248 569 241 528 C230 466 204 432 188 432 C172 432 157 456 162 490 L103 490 C92 425 125 373 178 373 C226 373 282 421 301 528 C317 618 289 666 250 684 L362 810 L176 810 Z M78 0 L157 0 L582 805 L504 805 L78 0 Z " />
<glyph glyph-name="fiveeighths" unicode="&#x215d;" horiz-adv-x="617" d="M588 283 C605 300 617 320 620 344 C630 395 599 437 551 437 C503 437 457 395 448 344 C444 320 449 300 458 283 C437 266 421 244 416 217 L395 89 C385 40 419 0 468 0 L480 0 C529 0 575 40 584 89 L606 217 C611 244 604 266 588 283 L588 283 Z M540 378 C554 378 565 362 562 344 C558 325 542 311 528 311 C512 311 503 325 506 344 C510 362 524 378 540 378 L540 378 Z M526 89 C522 72 506 59 490 59 L478 59 C461 59 450 72 454 89 L475 217 C479 234 494 247 511 247 L523 247 C540 247 551 234 547 217 L526 89 Z M325 682 C308 695 286 701 258 697 L268 751 L362 751 L373 810 L220 810 L185 618 L227 632 C253 641 272 642 283 634 C299 620 301 584 293 533 C287 503 271 432 238 432 C227 432 218 440 214 455 C210 466 210 478 212 491 L154 491 C149 468 150 446 156 428 C167 394 193 373 227 373 C263 373 326 394 352 533 C365 607 355 656 325 682 L325 682 Z M136 0 L215 0 L640 805 L562 805 L136 0 Z " />
<glyph glyph-name="seveneighths" unicode="&#x215e;" horiz-adv-x="541" d="M504 283 C521 300 533 320 536 344 C546 395 515 437 467 437 C419 437 373 395 364 344 C360 320 365 300 374 283 C353 266 337 244 332 217 L311 89 C301 40 335 0 384 0 L396 0 C445 0 491 40 500 89 L522 217 C527 244 520 266 504 283 L504 283 Z M456 378 C470 378 481 362 478 344 C474 325 458 311 444 311 C428 311 419 325 422 344 C426 362 440 378 456 378 L456 378 Z M442 89 C438 72 422 59 406 59 L394 59 C377 59 366 72 370 89 L391 217 C395 234 410 247 427 247 L439 247 C456 247 467 234 463 217 L442 89 Z M185 810 L174 751 L287 751 C242 684 164 547 133 373 L192 373 C233 600 362 764 364 766 L401 810 L185 810 Z M48 0 L127 0 L552 805 L474 805 L48 0 Z " />
<glyph glyph-name="partialdiff" unicode="&#x2202;" horiz-adv-x="502" d="M448 778 C362 778 266 702 233 610 L295 610 C316 667 373 714 424 714 C474 714 500 667 480 610 L436 484 C416 504 389 516 354 516 C269 516 173 442 142 349 L79 175 C79 173 77 169 77 167 L77 167 C43 74 88 0 173 0 C258 0 353 74 386 167 L389 175 L451 349 L542 610 C576 702 533 778 448 778 L448 778 Z M204 349 C223 407 282 454 332 454 C383 454 408 407 389 349 L326 175 C307 118 248 72 198 72 C148 72 122 118 142 175 L204 349 L204 349 Z " />
<glyph glyph-name="product" unicode="&#x220f;" horiz-adv-x="490" d="M248 806 L217 806 L185 806 L43 0 L107 0 L238 744 L502 744 L370 -1 L433 -1 L576 806 L248 806 L248 806 Z " />
<glyph glyph-name="summation" unicode="&#x2211;" horiz-adv-x="463" d="M280 328 L48 0 L415 0 L426 62 L163 62 L352 328 L257 593 L520 593 L530 655 L163 655 L280 328 L280 328 Z " />
<glyph glyph-name="minus" unicode="&#x2212;" horiz-adv-x="563" d="M94 360 L569 360 L586 455 L110 455 L94 360 L94 360 Z " />
<glyph glyph-name="radical" unicode="&#x221a;" horiz-adv-x="686" d="M350 79 L272 386 L88 295 L108 239 L226 299 L328 -100 L774 787 L718 806 L350 79 L350 79 Z " />
<glyph glyph-name="infinity" unicode="&#x221e;" horiz-adv-x="707" d="M636 510 C616 510 594 505 569 496 L425 439 C385 457 347 475 319 488 L302 496 C283 505 262 510 240 510 C180 510 130 467 119 404 C113 373 119 347 136 328 C150 310 174 299 204 299 C224 299 247 304 271 313 L413 370 C451 353 486 336 514 324 L538 313 C557 304 577 299 598 299 C598 299 598 299 598 299 C628 299 656 310 679 328 C701 347 715 373 721 404 C732 467 697 510 636 510 L636 510 Z M256 371 C241 366 228 362 216 362 C206 362 194 364 187 373 C180 382 181 395 182 404 C188 439 211 446 229 446 C241 446 256 444 268 438 L284 430 C300 422 318 414 340 404 L256 371 L256 371 Z M642 373 C631 364 619 362 610 362 C610 362 610 362 610 362 C598 362 584 365 572 371 L548 382 C534 389 518 396 499 404 L584 438 C600 444 613 448 625 448 C643 448 665 439 659 404 C658 395 653 382 642 373 L642 373 Z " />
<glyph glyph-name="integral" unicode="&#x222b;" horiz-adv-x="377" d="M218 618 L139 167 C127 102 85 62 59 62 L48 0 C118 0 186 74 203 167 L282 618 C293 674 340 722 385 722 C402 722 418 716 430 703 L481 750 C458 773 428 786 396 786 C314 786 235 710 218 618 L218 618 Z " />
<glyph glyph-name="approxequal" unicode="&#x2248;" horiz-adv-x="510" d="M322 474 C298 461 277 449 257 449 C257 449 257 449 257 449 C233 449 209 466 180 500 L128 456 C172 403 211 385 247 385 C284 385 318 404 346 420 C395 449 428 467 490 392 L542 437 C451 547 377 505 322 474 L322 474 Z M292 306 C269 293 248 281 228 281 C228 281 228 281 228 281 C204 281 179 298 150 332 L98 288 C142 235 182 218 218 218 C256 218 288 236 317 253 C366 281 398 299 460 224 L512 270 C421 379 347 337 292 306 L292 306 Z " />
<glyph glyph-name="notequal" unicode="&#x2260;" horiz-adv-x="380" d="M396 538 L343 564 L281 464 L118 464 L107 402 L241 402 L186 313 L91 313 L79 250 L145 250 L108 192 L161 166 L214 250 L384 250 L396 313 L254 313 L311 402 L412 402 L422 464 L350 464 L396 538 L396 538 Z " />
<glyph glyph-name="lessequal" unicode="&#x2264;" horiz-adv-x="390" d="M330 270 L251 454 L394 631 L347 665 L178 454 L270 238 L330 270 Z M389 184 L65 184 L54 121 L378 121 L389 184 Z " />
<glyph glyph-name="greaterequal" unicode="&#x2265;" horiz-adv-x="391" d="M203 238 L372 454 L277 665 L218 631 L299 454 L155 270 L203 238 L203 238 Z M54 121 L378 121 L389 184 L65 184 L54 121 L54 121 Z " />
<glyph glyph-name="lozenge" unicode="&#x25ca;" horiz-adv-x="414" d="M347 701 L307 701 L121 421 L209 137 L248 137 L434 415 L353 683 L347 701 L347 701 Z M247 240 L191 421 L308 598 L365 415 L247 240 L247 240 Z " />
<glyph glyph-name="ff" unicode="&#xfb00;" horiz-adv-x="601" d="M500 774 C480 798 450 811 416 811 C336 811 256 734 239 638 L229 583 L152 583 L142 521 L218 521 L127 0 L190 0 L281 521 L361 521 L372 583 L292 583 L301 638 C312 698 360 749 406 749 C427 749 442 737 450 728 L500 774 L500 774 Z M715 774 C695 798 665 811 631 811 C551 811 471 734 454 638 L444 583 L367 583 L357 521 L433 521 L342 0 L405 0 L496 521 L576 521 L587 583 L507 583 L516 638 C527 698 575 749 621 749 C642 749 657 737 665 728 L715 774 L715 774 Z " />
<glyph glyph-name="fi" unicode="&#xfb01;" horiz-adv-x="527" d="M356 0 L420 0 L522 583 L458 583 L356 0 L356 0 Z M499 775 C479 799 449 812 415 812 C335 812 254 734 238 640 L228 583 L151 583 L140 521 L217 521 L126 1 L188 1 L280 521 L360 521 L371 583 L290 583 L300 640 C311 698 359 749 404 749 C426 749 440 738 449 728 C468 708 475 674 468 640 L532 640 C541 692 529 742 499 775 L499 775 Z " />
<glyph glyph-name="fl" unicode="&#xfb02;" horiz-adv-x="538" d="M510 774 C490 798 448 811 414 811 C334 811 253 734 236 638 L227 583 L150 583 L139 521 L216 521 L125 0 L187 0 L278 521 L359 521 L370 583 L289 583 L299 638 C310 698 358 749 403 749 C425 749 451 737 460 728 C478 707 485 673 479 638 L367 0 L431 0 L542 638 C552 691 540 740 510 774 L510 774 Z " />
<glyph glyph-name="ffi" unicode="&#xfb03;" horiz-adv-x="689" d="M500 774 C480 798 450 811 416 811 C336 811 256 734 239 638 L229 583 L152 583 L142 521 L218 521 L127 0 L190 0 L281 521 L361 521 L372 583 L292 583 L301 638 C312 698 360 749 406 749 C427 749 442 737 450 728 L500 774 L500 774 Z M576 0 L640 0 L742 583 L678 583 L576 0 L576 0 Z M719 775 C699 799 669 812 635 812 C555 812 474 734 458 640 L448 583 L371 583 L360 521 L437 521 L346 1 L408 1 L500 521 L580 521 L591 583 L510 583 L520 640 C531 698 579 749 624 749 C646 749 660 738 669 728 C688 708 695 674 688 640 L752 640 C761 692 749 742 719 775 L719 775 Z " />
<glyph glyph-name="ffl" unicode="&#xfb04;" horiz-adv-x="680" d="M500 774 C480 798 450 811 416 811 C336 811 256 734 239 638 L229 583 L152 583 L142 521 L218 521 L127 0 L190 0 L281 521 L361 521 L372 583 L292 583 L301 638 C312 698 360 749 406 749 C427 749 442 737 450 728 L500 774 L500 774 Z M727 774 C707 798 665 811 631 811 C551 811 470 734 453 638 L444 583 L367 583 L356 521 L433 521 L342 0 L404 0 L495 521 L576 521 L587 583 L506 583 L516 638 C527 698 575 749 620 749 C642 749 668 737 677 728 C695 707 702 673 696 638 L584 0 L648 0 L759 638 C769 691 757 740 727 774 L727 774 Z " />
</font>
</svg>
