<?xml version="1.0" encoding="UTF-8"?>
<svg xmlns="http://www.w3.org/2000/svg" xmlns:xlink="http://www.w3.org/1999/xlink" version="1.2" >
<font id="Maxwell Sans Book">
<font-face  font-family="Maxwell Sans" units-per-em="1000" ascent="750" descent="-250" font-style="normal" font-weight="400" font-stretch="normal" cap-height="676" x-height="486" underline-position="-75" underline-thickness="50" />
<missing-glyph  horiz-adv-x="173" d="" />
<glyph glyph-name="space" unicode="&#x20;" horiz-adv-x="173" d="" />
<glyph glyph-name="exclam" unicode="&#x21;" horiz-adv-x="162" d="M48 0 L112 0 L112 59 L48 59 L48 0 L48 0 Z M48 157 L112 157 L112 816 L48 816 L48 157 L48 157 Z " />
<glyph glyph-name="quotedbl" unicode="&#x22;" horiz-adv-x="221" d="M122 720 L164 720 L170 809 L116 809 L122 720 L122 720 Z M54 720 L96 720 L101 809 L48 809 L54 720 L54 720 Z " />
<glyph glyph-name="numbersign" unicode="&#x23;" horiz-adv-x="598" d="M474 805 L410 805 L410 589 L203 589 L203 805 L139 805 L139 589 L36 589 L36 526 L139 526 L139 311 L36 311 L36 248 L139 248 L139 0 L203 0 L203 248 L410 248 L410 0 L474 0 L474 248 L558 248 L558 311 L474 311 L474 526 L558 526 L558 589 L474 589 L474 805 L474 805 Z M410 311 L203 311 L203 526 L410 526 L410 311 L410 311 Z " />
<glyph glyph-name="dollar" unicode="&#x24;" horiz-adv-x="438" d="M248 396 L248 700 C290 686 322 646 322 599 L385 599 C385 680 326 749 248 764 L248 858 L185 858 L185 764 C107 750 49 686 48 608 C47 497 118 427 185 367 L185 58 C143 71 113 110 113 157 L49 157 C49 76 108 7 185 -7 L185 -97 L248 -97 L248 -8 C282 -4 311 8 334 29 C366 58 384 100 385 150 C388 265 316 335 248 396 L248 396 Z M112 608 C112 652 142 688 185 700 L185 454 C142 498 110 542 112 608 L112 608 Z M322 151 C320 86 283 62 248 55 L248 310 C292 265 324 218 322 151 L322 151 Z " />
<glyph glyph-name="percent" unicode="&#x25;" horiz-adv-x="864" d="M341 528 L341 624 C341 715 275 790 193 790 C113 790 47 715 47 624 L47 528 C47 437 113 361 193 361 C275 361 341 437 341 528 L341 528 Z M277 528 C277 472 239 425 193 425 C149 425 110 472 110 528 L110 624 C110 679 149 727 193 727 C239 727 277 679 277 624 L277 528 L277 528 Z M667 443 C587 443 521 368 521 276 L521 181 C521 89 587 14 667 14 C749 14 815 89 815 181 L815 276 C815 368 749 443 667 443 L667 443 Z M751 181 C751 125 713 77 667 77 C622 77 583 125 583 181 L583 276 C583 332 622 379 667 379 C713 379 751 332 751 276 L751 181 L751 181 Z M541 805 L257 0 L336 0 L620 805 L541 805 L541 805 Z " />
<glyph glyph-name="ampersand" unicode="&#x26;" horiz-adv-x="551" d="M442 164 C458 239 470 356 470 450 L408 450 C408 382 401 295 390 228 C337 318 288 408 250 485 C269 510 286 530 299 545 C308 556 314 564 318 569 C376 648 364 708 350 737 C335 775 300 803 260 808 C229 812 199 802 173 780 C140 751 120 706 120 661 C120 646 120 611 176 492 C115 409 48 296 48 197 C48 76 132 11 215 1 C282 -6 358 20 403 82 C455 -2 492 -62 493 -64 L546 -30 C512 23 475 84 437 148 C439 152 440 158 442 164 L442 164 Z M215 732 C222 738 233 745 246 745 C248 745 250 745 252 745 C269 743 286 730 293 712 C305 683 296 646 268 606 C264 602 258 594 251 586 C242 575 232 563 220 548 C197 599 184 638 184 661 C184 688 196 715 215 732 L215 732 Z M222 65 C168 71 112 108 112 197 C112 270 158 356 208 427 C233 378 266 317 308 242 C329 208 348 174 367 142 C337 82 275 59 222 65 L222 65 Z " />
<glyph glyph-name="quotesingle" unicode="&#x27;" horiz-adv-x="144" d="M52 720 L94 720 L98 809 L46 809 L52 720 L52 720 Z " />
<glyph glyph-name="parenleft" unicode="&#x28;" horiz-adv-x="292" d="M145 864 C16 575 16 233 145 -56 C176 -56 192 -56 223 -56 C95 233 95 575 223 864 C192 864 176 864 145 864 L145 864 Z " />
<glyph glyph-name="parenright" unicode="&#x29;" horiz-adv-x="265" d="M48 864 C176 575 176 233 48 -56 C79 -56 95 -56 127 -56 C256 233 256 575 127 864 C95 864 79 864 48 864 L48 864 Z " />
<glyph glyph-name="asterisk" unicode="&#x2a;" horiz-adv-x="330" d="M244 780 L193 751 L193 809 L131 809 L131 751 L79 781 L48 726 L100 697 L49 668 L80 613 L131 642 L131 584 L193 584 L193 642 L242 614 L274 668 L226 697 L275 726 L244 780 L244 780 Z " />
<glyph glyph-name="plus" unicode="&#x2b;" horiz-adv-x="396" d="M227 496 L164 496 L164 365 L34 365 L34 302 L164 302 L164 172 L227 172 L227 302 L358 302 L358 365 L227 365 L227 496 L227 496 Z " />
<glyph glyph-name="comma" unicode="&#x2c;" horiz-adv-x="156" d="M107 54 L48 54 L48 -1 L74 -1 L74 -1 C74 -26 56 -24 56 -24 L56 -46 C108 -46 107 -1 107 -1 L107 54 L107 54 Z " />
<glyph glyph-name="hyphen" unicode="&#x2d;" horiz-adv-x="380" d="M32 371 L337 371 L337 433 L32 433 L32 371 L32 371 Z " />
<glyph glyph-name="period" unicode="&#x2e;" horiz-adv-x="142" d="M37 -1 L96 -1 L96 58 L37 58 L37 -1 L37 -1 Z " />
<glyph glyph-name="slash" unicode="&#x2f;" horiz-adv-x="446" d="M48 0 L127 0 L410 805 L332 805 L48 0 L48 0 Z " />
<glyph glyph-name="zero" unicode="0" horiz-adv-x="508" d="M283 808 L227 808 C134 808 60 733 60 642 L60 168 C60 77 134 2 227 2 L283 2 C374 2 449 77 449 168 L449 642 C449 733 374 808 283 808 L283 808 Z M386 168 C386 112 340 65 283 65 L227 65 C169 65 124 112 124 168 L124 642 C124 698 169 745 227 745 L283 745 C340 745 386 698 386 642 L386 168 Z " />
<glyph glyph-name="one" unicode="1" horiz-adv-x="281" d="M136 809 L60 731 L106 686 L138 721 L138 0 L200 0 L200 786 L200 808 L138 808 L136 809 L136 809 Z " />
<glyph glyph-name="two" unicode="2" horiz-adv-x="456" d="M397 616 C396 724 320 808 224 808 C130 808 53 716 53 602 L116 602 C116 682 164 745 224 745 C284 745 334 688 334 614 C335 496 270 425 202 349 C127 266 50 179 53 31 L54 0 L396 0 L396 62 L116 62 C125 168 185 236 248 306 C323 388 398 472 397 616 L397 616 Z " />
<glyph glyph-name="three" unicode="3" horiz-adv-x="456" d="M209 572 L390 808 L49 808 L49 745 L262 745 L85 516 L149 516 C204 516 247 498 277 463 C312 422 329 362 329 282 C329 138 274 64 220 64 C160 64 112 127 112 206 L48 206 C48 92 125 0 220 0 C270 0 314 29 346 82 C376 132 392 202 392 282 C392 378 370 452 325 504 C295 539 256 563 209 572 L209 572 Z " />
<glyph glyph-name="four" unicode="4" horiz-adv-x="517" d="M367 809 L298 809 L48 282 L305 282 L305 0 L367 0 L367 282 L470 282 L470 346 L367 346 L367 809 L367 809 Z M305 346 L148 346 L305 677 L305 346 L305 346 Z " />
<glyph glyph-name="five" unicode="5" horiz-adv-x="454" d="M304 559 C260 590 204 599 137 584 L137 745 L371 745 L371 808 L74 808 L74 499 L115 512 C181 535 232 533 268 508 C312 475 336 400 336 290 C336 187 317 64 224 64 C190 64 156 86 136 124 C122 148 116 176 116 205 L53 205 C53 166 62 127 80 94 C112 35 166 0 224 0 C277 0 322 24 350 71 C383 119 398 193 398 290 C398 424 367 514 304 559 L304 559 Z " />
<glyph glyph-name="six" unicode="6" horiz-adv-x="407" d="M203 745 C253 745 295 696 295 635 L358 635 C358 731 288 809 203 809 C118 809 48 731 48 635 L48 370 L48 176 L48 173 C48 77 118 0 203 0 C288 0 358 77 358 173 L358 173 C358 174 358 175 358 176 L358 370 C358 461 288 536 203 536 C168 536 137 524 112 503 L112 635 C112 696 152 745 203 745 L203 745 Z M203 473 C253 473 295 426 295 370 L295 176 C295 119 253 72 203 72 C152 72 112 119 112 176 L112 370 C112 426 152 473 203 473 L203 473 Z " />
<glyph glyph-name="seven" unicode="7" horiz-adv-x="461" d="M408 808 L48 808 L48 745 L338 745 C316 707 284 647 252 569 C199 439 134 250 134 0 L198 0 C198 238 259 420 310 544 C348 638 388 706 408 738 L408 808 L408 808 Z " />
<glyph glyph-name="eight" unicode="8" horiz-adv-x="448" d="M310 523 C348 552 372 598 372 650 C372 737 304 808 220 808 C134 808 66 737 66 650 C66 598 90 552 128 523 C80 494 48 440 48 380 L48 167 C48 76 122 0 215 0 L223 0 C316 0 390 76 390 167 L390 380 C390 440 358 494 310 523 L310 523 Z M128 650 C128 702 169 744 220 744 C269 744 310 702 310 650 C310 599 269 557 220 557 C169 557 128 599 128 650 L128 650 Z M328 167 C328 110 281 64 223 64 L215 64 C157 64 112 110 112 167 L112 380 C112 437 157 484 215 484 L223 484 C281 484 328 437 328 380 L328 167 L328 167 Z " />
<glyph glyph-name="nine" unicode="9" horiz-adv-x="412" d="M203 808 C203 808 203 808 203 808 L203 808 L203 808 C118 808 48 733 48 642 L48 452 C48 361 118 286 203 286 C238 286 269 299 295 319 L295 173 C295 113 253 64 203 64 C152 64 112 113 112 173 L48 173 C48 78 118 0 203 0 C288 0 358 78 358 173 L358 452 L358 635 L358 642 C358 733 288 808 203 808 L203 808 Z M295 452 C295 396 253 349 203 349 C152 349 112 396 112 452 L112 635 C112 696 152 745 203 745 C253 745 295 696 295 635 L295 452 L295 452 Z " />
<glyph glyph-name="colon" unicode="&#x3a;" horiz-adv-x="162" d="M48 -1 L107 -1 L107 59 L48 59 L48 -1 L48 -1 Z M48 328 L107 328 L107 388 L48 388 L48 328 L48 328 Z " />
<glyph glyph-name="semicolon" unicode="&#x3b;" horiz-adv-x="163" d="M107 389 L48 389 L48 329 L107 329 L107 389 L107 389 Z M107 56 L48 56 L48 1 L74 1 C74 -25 56 -23 56 -23 L56 -43 C108 -43 107 1 107 1 L107 56 L107 56 Z " />
<glyph glyph-name="less" unicode="&#x3c;" horiz-adv-x="373" d="M253 715 L44 394 L241 79 L295 113 L119 394 L307 682 L253 715 Z " />
<glyph glyph-name="equal" unicode="&#x3d;" horiz-adv-x="380" d="M29 438 L334 438 L334 500 L29 500 L29 438 L29 438 Z M29 287 L334 287 L334 349 L29 349 L29 287 L29 287 Z " />
<glyph glyph-name="greater" unicode="&#x3e;" horiz-adv-x="373" d="M44 682 L233 394 L56 113 L110 79 L307 394 L98 715 L44 682 Z " />
<glyph glyph-name="question" unicode="&#x3f;" horiz-adv-x="422" d="M143 0 L205 0 L205 59 L143 59 L143 0 L143 0 Z M212 800 C118 800 41 712 41 602 L104 602 C104 677 152 737 212 737 C272 737 322 683 322 613 C323 499 284 457 240 407 C192 354 138 294 140 151 L204 154 C202 271 241 314 287 365 C334 416 386 475 385 613 C384 719 308 800 212 800 L212 800 Z " />
<glyph glyph-name="at" unicode="&#x40;" horiz-adv-x="673" d="M616 371 C616 527 488 654 331 654 C175 654 48 527 48 371 L48 166 C48 10 175 -118 331 -118 L331 -54 C210 -54 112 44 112 166 L112 371 C112 492 210 592 331 592 C454 592 552 492 552 371 L552 166 L553 166 L553 127 C553 101 527 73 497 67 C487 65 478 67 470 73 C460 82 454 97 454 115 L454 198 L454 342 L454 510 L391 510 L391 485 C372 499 349 508 325 508 C253 508 196 433 196 342 L196 198 C196 107 253 32 325 32 C353 32 379 44 401 65 C408 49 418 35 431 25 C448 11 468 4 490 4 C497 4 503 4 509 5 C569 17 616 71 616 127 L616 203 L616 203 L616 371 L616 371 Z M325 95 C289 95 258 144 258 198 L258 342 C258 397 289 445 325 445 C360 445 391 397 391 342 L391 198 C391 144 360 95 325 95 L325 95 Z " />
<glyph glyph-name="A" unicode="A" horiz-adv-x="486" d="M204 811 L48 0 L112 0 L157 232 L316 232 L360 0 L424 0 L271 811 L204 811 L204 811 Z M169 294 L238 649 L304 294 L169 294 L169 294 Z " />
<glyph glyph-name="B" unicode="B" horiz-adv-x="420" d="M281 492 C316 523 337 572 337 628 L337 644 C336 737 272 811 196 811 L53 811 L53 0 L209 0 C294 0 364 74 364 166 L364 346 C364 409 330 464 281 492 L281 492 Z M116 748 L196 748 C238 748 275 700 275 641 L275 625 C274 569 239 523 197 523 L116 523 L116 748 L116 748 Z M301 166 C301 109 259 64 209 64 L116 64 L116 449 L209 449 C259 449 301 402 301 346 L301 166 L301 166 Z " />
<glyph glyph-name="C" unicode="C" horiz-adv-x="445" d="M215 749 L223 749 C251 749 276 738 296 718 C308 704 318 688 323 670 L384 686 C376 715 361 740 341 762 C310 794 268 811 223 811 L215 811 C122 811 48 734 48 640 L48 173 C48 78 122 0 215 0 L223 0 C294 0 356 47 380 114 L320 136 C306 92 266 64 223 64 L215 64 C157 64 112 113 112 173 L112 640 C112 700 157 749 215 749 L215 749 Z " />
<glyph glyph-name="D" unicode="D" horiz-adv-x="448" d="M230 811 L65 811 L65 0 L233 0 C319 0 390 74 390 166 L390 648 C390 738 318 811 230 811 L230 811 Z M326 166 C326 109 284 64 233 64 L128 64 L128 749 L230 749 C283 749 326 703 326 648 L326 166 L326 166 Z " />
<glyph glyph-name="E" unicode="E" horiz-adv-x="379" d="M53 0 L310 0 L310 62 L116 62 L116 338 L247 338 L247 401 L116 401 L116 748 L310 748 L310 811 L53 811 L53 0 L53 0 Z " />
<glyph glyph-name="F" unicode="F" horiz-adv-x="368" d="M53 0 L116 0 L116 338 L247 338 L247 401 L116 401 L116 749 L310 749 L310 811 L53 811 L53 0 L53 0 Z " />
<glyph glyph-name="G" unicode="G" horiz-adv-x="448" d="M202 337 L328 337 L328 172 C328 112 281 64 223 64 L215 64 C157 64 112 112 112 172 L112 640 C112 700 157 749 215 749 L223 749 C251 749 276 737 296 718 C308 704 318 688 323 670 L384 686 C376 715 361 740 341 761 C310 793 268 811 223 811 L215 811 C122 811 48 734 48 640 L48 172 C48 77 122 0 215 0 L223 0 C316 0 390 77 390 172 L390 401 L202 401 L202 337 L202 337 Z " />
<glyph glyph-name="H" unicode="H" horiz-adv-x="452" d="M331 401 L128 401 L128 811 L65 811 L65 0 L128 0 L128 338 L331 338 L331 0 L395 0 L395 811 L331 811 L331 401 L331 401 Z " />
<glyph glyph-name="I" unicode="I" horiz-adv-x="199" d="M62 0 L126 0 L126 811 L62 811 L62 0 L62 0 Z " />
<glyph glyph-name="J" unicode="J" horiz-adv-x="450" d="M324 173 C324 112 277 62 220 62 C162 62 116 112 116 173 L116 372 L53 372 L53 173 C53 77 127 0 220 0 C312 0 386 77 386 173 L386 811 L324 811 L324 173 L324 173 Z " />
<glyph glyph-name="K" unicode="K" horiz-adv-x="480" d="M416 811 L341 811 L124 473 L124 811 L60 811 L60 0 L124 0 L124 359 L179 451 L343 0 L419 0 L223 514 L416 811 Z " />
<glyph glyph-name="L" unicode="L" horiz-adv-x="379" d="M126 811 L62 811 L62 0 L319 0 L319 64 L126 64 L126 811 L126 811 Z " />
<glyph glyph-name="M" unicode="M" horiz-adv-x="540" d="M403 811 L265 365 L127 811 L62 811 L62 0 L126 0 L126 601 L240 234 L290 234 L407 610 L407 0 L470 0 L470 811 L403 811 Z " />
<glyph glyph-name="N" unicode="N" horiz-adv-x="488" d="M360 811 L360 168 L134 811 L60 811 L60 0 L124 0 L124 649 L352 0 L422 0 L422 811 L360 811 L360 811 Z " />
<glyph glyph-name="O" unicode="O" horiz-adv-x="452" d="M228 811 L220 811 C127 811 53 737 53 644 L53 167 C53 74 127 0 220 0 L228 0 C320 0 395 74 395 167 L395 644 C395 737 320 811 228 811 L228 811 Z M332 167 C332 109 286 62 228 62 L220 62 C162 62 116 109 116 167 L116 644 C116 702 162 748 220 748 L228 748 C286 748 332 702 332 644 L332 167 L332 167 Z " />
<glyph glyph-name="P" unicode="P" horiz-adv-x="445" d="M221 811 L53 811 L53 362 L53 299 L53 0 L116 0 L116 299 L221 299 C307 299 377 373 377 464 L377 646 C377 737 307 811 221 811 L221 811 Z M313 464 C313 408 272 362 221 362 L116 362 L116 748 L221 748 C272 748 313 702 313 646 L313 464 L313 464 Z " />
<glyph glyph-name="Q" unicode="Q" horiz-adv-x="469" d="M401 166 L401 646 C401 737 326 811 234 811 L226 811 C133 811 59 737 59 646 L59 166 C59 74 133 0 226 0 L234 0 C269 0 300 10 326 28 L373 -23 L419 22 L371 71 C390 98 401 131 401 166 L401 166 Z M338 166 C338 149 334 132 326 118 L272 174 L227 131 L281 74 C268 67 251 62 234 62 L226 62 C168 62 122 109 122 166 L122 646 C122 702 168 749 226 749 L234 749 C292 749 338 702 338 646 L338 166 L338 166 Z " />
<glyph glyph-name="R" unicode="R" horiz-adv-x="448" d="M311 330 C350 360 377 409 377 466 L377 647 C377 738 307 811 221 811 L53 811 L53 0 L116 0 L116 300 L212 300 C269 300 316 253 316 197 L316 0 L379 0 L379 197 C379 252 352 300 311 330 L311 330 Z M221 364 L116 364 L116 749 L221 749 C272 749 313 703 313 647 L313 466 C313 409 272 364 221 364 L221 364 Z " />
<glyph glyph-name="S" unicode="S" horiz-adv-x="452" d="M242 432 C176 493 115 554 116 648 C116 704 163 749 222 749 C280 749 326 700 326 638 L390 638 C390 734 314 811 222 811 C128 811 54 740 53 648 C52 527 130 450 199 386 C266 324 329 264 326 168 C325 77 260 64 222 64 C164 64 118 113 118 174 L54 174 C54 78 130 0 222 0 C269 0 310 14 338 41 C371 71 389 114 390 166 C392 292 313 367 242 432 L242 432 Z " />
<glyph glyph-name="T" unicode="T" horiz-adv-x="415" d="M48 748 L169 748 L169 0 L232 0 L232 748 L352 748 L352 811 L48 811 L48 748 L48 748 Z " />
<glyph glyph-name="U" unicode="U" horiz-adv-x="458" d="M332 167 C332 109 286 64 228 64 L220 64 C162 64 116 109 116 167 L116 811 L53 811 L53 167 C53 74 127 0 220 0 L228 0 C320 0 395 74 395 167 L395 811 L332 811 L332 167 L332 167 Z " />
<glyph glyph-name="V" unicode="V" horiz-adv-x="456" d="M112 811 L48 811 L198 0 L250 0 L401 811 L336 811 L224 206 L112 811 Z " />
<glyph glyph-name="W" unicode="W" horiz-adv-x="698" d="M474 263 L458 137 L442 263 L370 702 L313 702 L239 254 L223 137 L208 254 C208 254 112 811 112 811 L48 811 L198 0 L250 0 L328 450 L341 553 L355 450 L432 0 L484 0 L635 811 L570 811 L474 263 L474 263 Z " />
<glyph glyph-name="X" unicode="X" horiz-adv-x="480" d="M340 811 L227 480 L115 811 L48 811 L194 383 L62 0 L130 0 L227 286 L325 0 L392 0 L260 383 L407 811 L340 811 L340 811 Z " />
<glyph glyph-name="Y" unicode="Y" horiz-adv-x="464" d="M229 428 L114 811 L48 811 L198 312 L198 0 L262 0 L262 314 L407 811 L341 811 L229 428 L229 428 Z " />
<glyph glyph-name="Z" unicode="Z" horiz-adv-x="469" d="M73 811 L73 746 L306 746 L48 0 L377 0 L377 0 L377 62 L137 62 L395 811 L73 811 Z " />
<glyph glyph-name="bracketleft" unicode="&#x5b;" horiz-adv-x="317" d="M48 -31 L283 -31 L283 32 L112 32 L112 775 L283 775 L283 839 L48 839 L48 -31 L48 -31 Z " />
<glyph glyph-name="backslash" unicode="&#x5c;" horiz-adv-x="462" d="M410 0 L126 805 L48 805 L331 0 L410 0 L410 0 Z " />
<glyph glyph-name="bracketright" unicode="&#x5d;" horiz-adv-x="320" d="M35 775 L208 775 L208 32 L35 32 L35 -31 L270 -31 L270 839 L35 839 L35 775 L35 775 Z " />
<glyph glyph-name="asciicircum" unicode="&#x5e;" horiz-adv-x="533" d="M47 688 L88 640 L262 787 L442 640 L481 688 L262 869 L47 688 L47 688 Z " />
<glyph glyph-name="underscore" unicode="&#x5f;" horiz-adv-x="551" d="M43 -65 L517 -65 L517 -1 L43 -1 L43 -65 L43 -65 Z " />
<glyph glyph-name="grave" unicode="&#x60;" horiz-adv-x="169" d="M48 773 L74 684 L116 684 L101 773 L48 773 L48 773 Z " />
<glyph glyph-name="a" unicode="a" horiz-adv-x="427" d="M239 583 L233 583 L233 583 C167 581 113 526 113 460 L176 460 C176 492 203 518 236 520 C269 518 295 490 295 454 L295 373 C271 394 241 406 209 406 C128 406 62 330 62 239 L62 168 C62 76 128 0 209 0 C241 0 271 12 295 31 L295 0 L358 0 L359 454 C359 523 305 580 239 583 L239 583 Z M293 168 C293 112 254 64 209 64 C164 64 126 112 126 168 L126 239 C126 295 164 342 209 342 C254 342 293 295 293 239 L293 168 L293 168 Z " />
<glyph glyph-name="b" unicode="b" horiz-adv-x="419" d="M209 583 C178 583 149 572 126 553 L126 811 L62 811 L62 414 L62 169 L62 0 L126 0 L126 30 C149 11 178 0 209 0 C290 0 356 76 356 169 L356 414 C356 508 290 583 209 583 L209 583 Z M293 169 C293 113 254 64 209 64 C164 64 126 113 126 169 L126 414 C126 470 164 520 209 520 C254 520 293 470 293 414 L293 169 L293 169 Z " />
<glyph glyph-name="c" unicode="c" horiz-adv-x="377" d="M209 520 C233 520 256 506 271 482 L324 518 C295 559 254 583 209 583 C128 583 62 506 62 410 L62 172 C62 77 128 0 209 0 C253 0 294 23 323 62 L271 98 C254 76 233 62 209 62 C164 62 126 113 126 172 L126 410 C126 470 164 520 209 520 L209 520 Z " />
<glyph glyph-name="d" unicode="d" horiz-adv-x="440" d="M307 551 C282 571 252 583 220 583 C139 583 73 506 73 413 L73 170 C73 77 139 0 220 0 C252 0 282 12 307 32 L307 0 L370 0 L370 811 L307 811 L307 551 L307 551 Z M304 170 C304 113 265 65 220 65 C175 65 137 113 137 170 L137 413 C137 470 175 518 220 518 C265 518 304 470 304 413 L304 170 L304 170 Z " />
<glyph glyph-name="e" unicode="e" horiz-adv-x="427" d="M209 583 C128 583 62 504 62 408 L62 175 C62 79 128 0 209 0 C290 0 356 79 356 175 L293 175 C293 115 254 65 209 65 C164 65 126 115 126 175 L126 290 L356 290 L356 408 C356 504 290 583 209 583 L209 583 Z M293 354 L126 354 L126 408 C126 468 164 518 209 518 C254 518 293 468 293 408 L293 354 L293 354 Z " />
<glyph glyph-name="f" unicode="f" horiz-adv-x="397" d="M365 774 C340 798 307 811 274 811 C193 811 127 734 127 638 L127 583 L50 583 L50 521 L127 521 L127 0 L190 0 L190 521 L270 521 L270 583 L190 583 L190 638 C190 698 228 749 274 749 C295 749 312 737 322 728 L365 774 L365 774 Z " />
<glyph glyph-name="g" unicode="g" horiz-adv-x="416" d="M293 553 C269 572 240 583 209 583 C128 583 62 509 62 418 L62 167 C62 76 128 0 209 0 C240 0 269 12 293 30 L293 -7 C293 -66 254 -115 209 -115 C187 -115 172 -104 161 -95 L118 -140 C144 -164 176 -178 209 -178 C290 -178 356 -101 356 -7 L356 167 L356 418 L356 583 L293 583 L293 553 L293 553 Z M293 167 C293 110 254 64 209 64 C164 64 126 110 126 167 L126 418 C126 473 164 521 209 521 C254 521 293 473 293 418 L293 167 L293 167 Z " />
<glyph glyph-name="h" unicode="h" horiz-adv-x="416" d="M209 583 C178 583 149 572 126 553 L126 811 L62 811 L62 0 L126 0 L126 416 C126 473 164 521 209 521 C254 521 293 473 293 416 L293 0 L356 0 L356 416 C356 509 290 583 209 583 L209 583 Z " />
<glyph glyph-name="i" unicode="i" horiz-adv-x="190" d="M62 0 L126 0 L126 583 L62 583 L62 0 L62 0 Z M62 653 L126 653 L126 720 L62 720 L62 653 L62 653 Z " />
<glyph glyph-name="j" unicode="j" horiz-adv-x="221" d="M89 653 L152 653 L152 720 L89 720 L89 653 L89 653 Z M89 2 C89 -58 50 -107 5 -107 C-17 -107 -34 -96 -43 -86 L-86 -140 C-60 -164 -28 -170 5 -170 C86 -170 152 -92 152 2 L152 583 L89 583 L89 2 L89 2 Z " />
<glyph glyph-name="k" unicode="k" horiz-adv-x="460" d="M320 583 L128 347 L128 811 L65 811 L65 0 L128 0 L128 242 L197 330 L318 0 L390 0 L245 385 L397 583 L320 583 L320 583 Z " />
<glyph glyph-name="l" unicode="l" horiz-adv-x="198" d="M62 0 L126 0 L126 811 L62 811 L62 0 L62 0 Z " />
<glyph glyph-name="m" unicode="m" horiz-adv-x="646" d="M440 583 C394 583 352 558 325 520 C298 558 256 583 209 583 C178 583 149 572 126 553 L126 583 L62 583 L62 416 L62 0 L126 0 L126 416 C126 473 164 520 209 520 C254 520 293 473 293 416 L293 0 L356 0 L356 416 C356 473 395 520 440 520 C486 520 524 473 524 416 L524 0 L587 0 L587 416 C587 509 521 583 440 583 L440 583 Z " />
<glyph glyph-name="n" unicode="n" horiz-adv-x="425" d="M209 583 C178 583 149 572 126 553 L126 583 L62 583 L62 416 L62 0 L126 0 L126 416 C126 473 164 521 209 521 C254 521 293 473 293 416 L293 0 L356 0 L356 416 C356 509 290 583 209 583 L209 583 Z " />
<glyph glyph-name="o" unicode="o" horiz-adv-x="422" d="M209 583 C128 583 62 509 62 418 L62 166 C62 74 128 0 209 0 C290 0 356 74 356 166 L356 418 C356 509 290 583 209 583 L209 583 Z M293 166 C293 110 254 62 209 62 C164 62 126 110 126 166 L126 418 C126 473 164 521 209 521 C254 521 293 473 293 418 L293 166 L293 166 Z " />
<glyph glyph-name="p" unicode="p" horiz-adv-x="425" d="M209 583 C178 583 149 572 126 553 L126 583 L62 583 L62 416 L62 167 L62 -193 L126 -193 L126 30 C149 11 178 0 209 0 C290 0 356 85 356 178 L356 416 C356 509 290 583 209 583 L209 583 Z M293 167 C293 110 254 62 209 62 C164 62 126 110 126 167 L126 416 C126 473 164 520 209 520 C254 520 293 473 293 416 L293 167 L293 167 Z " />
<glyph glyph-name="q" unicode="q" horiz-adv-x="427" d="M359 -80 L359 583 L296 583 L296 551 C271 571 241 583 209 583 C128 583 62 509 62 416 L62 167 C62 74 128 0 209 0 C241 0 271 12 296 32 L296 -80 C296 -137 341 -184 397 -184 L397 -121 C376 -121 359 -102 359 -80 L359 -80 Z M293 167 C293 110 254 64 209 64 C164 64 126 110 126 167 L126 416 C126 473 164 520 209 520 C254 520 293 473 293 416 L293 167 L293 167 Z " />
<glyph glyph-name="r" unicode="r" horiz-adv-x="374" d="M211 583 C180 583 151 571 128 552 L128 583 L65 583 L65 410 L65 185 L65 0 L128 0 L128 185 L128 410 C128 470 167 520 211 520 C235 520 258 506 274 482 L326 518 C298 559 257 583 211 583 L211 583 Z " />
<glyph glyph-name="s" unicode="s" horiz-adv-x="392" d="M218 320 C168 362 125 400 126 458 C126 492 158 518 199 518 C227 518 252 504 265 481 L320 512 C296 556 251 583 199 583 C124 583 64 528 62 460 C61 370 124 317 179 270 C229 227 274 188 272 127 C271 76 232 65 199 65 C169 65 143 82 132 107 L73 82 C95 32 144 0 199 0 C280 0 334 49 335 125 C337 218 275 272 218 320 L218 320 Z " />
<glyph glyph-name="t" unicode="t" horiz-adv-x="349" d="M242 64 C214 64 182 110 182 173 L182 521 L293 521 L293 583 L182 583 L182 716 L119 716 L119 583 L62 583 L62 521 L119 521 L119 173 C119 77 174 0 242 0 C278 0 313 22 336 59 L282 92 C271 74 257 64 242 64 L242 64 Z " />
<glyph glyph-name="u" unicode="u" horiz-adv-x="415" d="M293 551 L293 167 C293 110 254 64 209 64 C164 64 126 110 126 167 L126 583 L62 583 L62 167 C62 76 128 0 209 0 C240 0 269 12 293 30 L293 0 L356 0 L356 167 L356 551 L356 583 L293 583 L293 551 L293 551 Z " />
<glyph glyph-name="v" unicode="v" horiz-adv-x="384" d="M126 583 L62 583 L170 0 L222 0 L329 583 L265 583 L196 206 L126 583 Z " />
<glyph glyph-name="w" unicode="w" horiz-adv-x="594" d="M402 218 C402 218 395 136 392 136 C390 136 383 218 383 218 L322 583 L254 583 L193 218 C193 218 187 136 185 136 C182 136 176 218 176 218 L115 583 L50 583 L164 0 L206 0 L268 340 L289 458 L311 338 L371 0 L414 0 L528 583 L463 583 L402 218 L402 218 Z " />
<glyph glyph-name="x" unicode="x" horiz-adv-x="468" d="M406 583 L336 583 L241 382 L146 583 L77 583 L206 308 L62 0 L132 0 L242 234 L353 0 L422 0 L277 308 L406 583 L406 583 Z " />
<glyph glyph-name="y" unicode="y" horiz-adv-x="416" d="M293 167 C293 110 254 62 209 62 C164 62 126 110 126 167 L126 583 L62 583 L62 167 C62 74 128 0 209 0 C240 0 269 11 293 30 L293 0 C293 -59 254 -108 209 -108 C187 -108 172 -97 161 -88 L118 -134 C144 -158 176 -172 209 -172 C290 -172 356 -95 356 0 L356 167 L356 583 L293 583 L293 167 Z " />
<glyph glyph-name="z" unicode="z" horiz-adv-x="403" d="M347 583 L73 583 L73 520 L253 520 L50 0 L330 0 L330 64 L144 64 L322 520 L347 583 L347 583 Z " />
<glyph glyph-name="braceleft" unicode="&#x7b;" horiz-adv-x="320" d="M132 649 L132 570 C132 526 108 476 86 462 C61 445 48 421 48 396 C48 370 64 346 89 329 C112 314 137 264 137 221 L137 126 C137 55 175 0 226 0 L283 0 L283 62 L226 62 C217 62 199 86 199 126 L199 221 C199 283 166 354 122 382 C114 388 112 392 112 396 C110 400 115 406 121 409 C162 437 194 508 194 570 L194 649 C194 688 214 712 223 712 L283 712 L283 775 L223 775 C172 775 132 720 132 649 L132 649 Z " />
<glyph glyph-name="bar" unicode="&#x7c;" horiz-adv-x="163" d="M48 -97 L112 -97 L112 858 L48 858 L48 -97 L48 -97 Z " />
<glyph glyph-name="braceright" unicode="&#x7d;" horiz-adv-x="320" d="M245 462 C223 476 199 526 199 570 L199 649 C199 720 160 775 108 775 L48 775 L48 712 L108 712 C118 712 137 688 137 649 L137 570 C137 508 169 437 210 409 C216 406 221 400 221 396 C220 392 217 388 209 382 C166 354 132 283 132 221 L132 126 C132 86 114 62 106 62 L48 62 L48 0 L106 0 C156 0 194 55 194 126 L194 221 C194 264 220 314 242 329 C268 346 283 370 283 396 C283 421 270 445 245 462 L245 462 Z " />
<glyph glyph-name="asciitilde" unicode="&#x7e;" horiz-adv-x="510" d="M179 337 C179 337 179 337 179 337 C199 337 217 326 239 313 C288 282 355 240 466 349 L421 394 C347 319 317 338 272 366 C247 382 217 401 180 401 C144 401 101 384 48 331 L92 287 C127 320 155 337 179 337 L179 337 Z " />
<glyph glyph-name="exclamdown" unicode="&#xa1;" horiz-adv-x="162" d="M48 617 L48 558 L112 558 L112 617 L48 617 Z M48 460 L48 -199 L112 -199 L112 460 L48 460 Z " />
<glyph glyph-name="cent" unicode="&#xa2;" horiz-adv-x="388" d="M258 566 C268 559 274 550 277 539 L337 558 C330 580 318 599 300 614 C281 631 258 642 233 647 L233 726 L163 726 L163 643 C108 626 58 578 58 522 L58 204 C58 146 108 98 163 82 L163 0 L233 0 L233 78 C278 88 318 118 335 160 L276 182 C269 164 252 151 233 144 L233 582 C242 578 251 574 258 566 L258 566 Z M121 204 L121 522 C121 544 144 564 163 575 L163 150 C144 162 121 181 121 204 L121 204 Z " />
<glyph glyph-name="sterling" unicode="&#xa3;" horiz-adv-x="494" d="M388 101 C377 77 360 66 334 66 C287 66 218 65 162 65 C179 92 188 128 188 167 L188 289 L324 289 L324 353 L188 353 L188 618 C188 674 227 722 272 722 C290 722 307 716 322 703 L364 750 C337 773 306 786 272 786 C192 786 126 710 126 618 L126 353 L48 353 L48 289 L126 289 L126 167 C126 103 90 64 64 62 C62 62 62 62 62 62 L62 0 C64 0 65 0 66 0 C88 0 247 2 334 2 C385 2 425 29 445 76 C460 107 460 138 460 142 L397 142 C397 142 396 120 388 101 L388 101 Z " />
<glyph glyph-name="currency" unicode="&#xa4;" horiz-adv-x="446" d="M341 553 L295 467 C275 485 250 496 222 496 C196 496 170 485 149 467 L104 553 L48 524 L108 408 C98 384 94 358 94 329 L94 186 C94 157 98 131 108 108 L48 -8 L104 -37 L149 49 C170 30 196 19 222 19 C250 19 275 30 295 49 L341 -37 L397 -8 L338 103 L334 101 C346 126 352 155 352 186 L352 329 C352 358 346 384 336 408 L397 524 L341 553 L341 553 Z M222 83 C187 83 156 131 156 186 L156 329 C156 384 187 433 222 433 C258 433 289 384 289 329 L289 186 C289 131 258 83 222 83 L222 83 Z " />
<glyph glyph-name="yen" unicode="&#xa5;" horiz-adv-x="481" d="M354 827 L227 412 L96 827 L36 808 L167 392 L86 392 L86 330 L186 330 L193 307 L193 276 L86 276 L86 214 L193 214 L193 0 L257 0 L257 214 L364 214 L364 276 L257 276 L257 293 L268 330 L364 330 L364 392 L287 392 L414 808 L354 827 L354 827 Z " />
<glyph glyph-name="brokenbar" unicode="&#xa6;" horiz-adv-x="185" d="M48 494 L112 494 L112 809 L48 809 L48 494 L48 494 Z M48 118 L112 118 L112 432 L48 432 L48 118 L48 118 Z " />
<glyph glyph-name="section" unicode="&#xa7;" horiz-adv-x="592" d="M385 438 C318 496 259 544 260 625 C260 674 307 713 366 713 C425 713 472 670 472 617 L534 617 C534 704 460 776 366 776 C272 776 198 710 197 626 C197 587 206 553 222 523 C221 523 218 523 216 523 C124 523 49 457 48 373 C47 262 125 196 194 137 C263 79 323 30 320 -55 C318 -134 254 -145 216 -145 C160 -145 113 -102 113 -49 L49 -49 C49 -137 125 -209 216 -209 C263 -209 302 -196 331 -172 C364 -145 382 -106 383 -56 C384 -18 376 16 361 44 C364 44 365 44 366 44 C413 44 452 58 482 82 C515 108 533 148 534 197 C538 312 456 379 385 438 L385 438 Z M472 198 C469 120 404 108 366 108 C338 108 312 118 292 137 L292 136 C274 154 254 169 235 185 C168 241 110 290 112 372 C112 421 158 460 216 460 C246 460 278 449 296 431 L298 431 C313 416 329 403 344 390 C414 332 473 283 472 198 L472 198 Z " />
<glyph glyph-name="dieresis" unicode="&#xa8;" horiz-adv-x="270" d="M142 701 L200 701 L200 761 L142 761 L142 701 L142 701 Z M48 701 L107 701 L107 761 L48 761 L48 701 L48 701 Z " />
<glyph glyph-name="copyright" unicode="&#xa9;" horiz-adv-x="635" d="M313 814 C167 814 48 686 48 530 L48 283 C48 127 167 0 313 0 C460 0 578 127 578 283 L578 530 C578 686 460 814 313 814 L313 814 Z M516 283 C516 162 425 62 313 62 C202 62 112 162 112 283 L112 530 C112 652 202 751 313 751 C425 751 516 652 516 530 L516 283 L516 283 Z M319 619 C343 619 366 606 382 583 L433 620 C404 660 364 683 319 683 C238 683 172 607 172 516 L172 298 C172 206 238 131 319 131 C362 131 403 154 432 191 L380 228 C365 206 342 194 319 194 C274 194 235 241 235 298 L235 516 C235 572 274 619 319 619 L319 619 Z " />
<glyph glyph-name="ordfeminine" unicode="&#xaa;" horiz-adv-x="250" d="M124 790 L121 790 L121 790 C84 788 53 758 53 721 L89 721 C89 739 104 753 122 754 C141 753 155 738 155 718 L155 672 C142 684 125 691 107 691 C62 691 25 648 25 597 L25 558 C25 506 62 464 107 464 C125 464 142 471 155 481 L155 464 L191 464 L191 718 C191 756 161 788 124 790 L124 790 Z M154 558 C154 527 132 500 107 500 C82 500 61 527 61 558 L61 597 C61 629 82 655 107 655 C132 655 154 629 154 597 L154 558 L154 558 Z " />
<glyph glyph-name="guillemotleft" unicode="&#xab;" horiz-adv-x="443" d="M180 600 L48 389 L180 173 L234 206 L122 389 L234 566 L180 600 Z M324 600 L192 389 L324 173 L378 206 L266 389 L378 566 L324 600 Z " />
<glyph glyph-name="logicalnot" unicode="&#xac;" horiz-adv-x="628" d="M34 325 L512 325 L512 187 L576 187 L576 389 L34 389 L34 325 L34 325 Z " />
<glyph glyph-name="uni00AD" unicode="&#xad;" horiz-adv-x="373" d="M32 371 L337 371 L337 433 L32 433 L32 371 Z " />
<glyph glyph-name="registered" unicode="&#xae;" horiz-adv-x="568" d="M394 475 L394 570 C394 626 349 672 294 672 L187 672 L187 671 L187 608 L187 436 L187 372 L187 233 L250 233 L250 372 L287 372 C311 372 331 344 331 312 L331 220 L395 220 L395 312 C395 347 382 378 362 401 C382 419 394 445 394 475 L394 475 Z M250 608 L294 608 C314 608 330 592 330 570 L330 475 C330 454 314 436 294 436 L250 436 L250 608 L250 608 Z M334 808 L238 808 C133 808 48 724 48 619 L48 272 C48 168 133 84 238 84 L334 84 C437 84 522 168 522 272 L522 619 C522 724 437 808 334 808 L334 808 Z M460 272 C460 203 402 146 334 146 L238 146 C168 146 112 203 112 272 L112 619 C112 689 168 745 238 745 L334 745 C402 745 460 689 460 619 L460 272 L460 272 Z " />
<glyph glyph-name="macron" unicode="&#xaf;" horiz-adv-x="374" d="M32 746 L337 746 L337 809 L32 809 L32 746 Z " />
<glyph glyph-name="degree" unicode="&#xb0;" horiz-adv-x="241" d="M212 720 C212 769 173 809 124 809 C76 809 36 769 36 720 C36 672 76 632 124 632 C173 632 212 672 212 720 L212 720 Z M124 684 C104 684 90 701 90 720 C90 740 104 756 124 756 C144 756 158 740 158 720 C158 701 144 684 124 684 L124 684 Z " />
<glyph glyph-name="plusminus" unicode="&#xb1;" horiz-adv-x="392" d="M34 115 L358 115 L358 179 L34 179 L34 115 L34 115 Z M227 556 L164 556 L164 425 L34 425 L34 361 L164 361 L164 232 L227 232 L227 361 L358 361 L358 425 L227 425 L227 556 L227 556 Z " />
<glyph glyph-name="twosuperior" unicode="&#xb2;" horiz-adv-x="260" d="M215 698 C214 761 172 809 119 809 C66 809 24 758 24 692 L83 692 C83 726 102 750 119 750 C139 750 155 727 155 698 C156 642 128 610 97 570 C62 528 23 480 24 401 L24 372 L199 372 L199 431 L85 431 C92 472 115 500 143 533 C176 575 215 622 215 698 L215 698 Z " />
<glyph glyph-name="threesuperior" unicode="&#xb3;" horiz-adv-x="258" d="M130 684 L220 810 L34 810 L34 751 L106 751 L23 636 L80 636 C140 636 149 569 149 528 C149 466 128 432 113 432 C96 432 77 456 77 490 L18 490 C18 425 60 373 113 373 C161 373 209 421 209 528 C209 618 173 666 130 684 L130 684 Z " />
<glyph glyph-name="acute" unicode="&#xb4;" horiz-adv-x="170" d="M48 684 L90 684 L116 773 L64 773 L48 684 L48 684 Z " />
<glyph glyph-name="&amp;#xb5;" unicode="&#xb5;" horiz-adv-x="392" d="M278 528 L278 167 C278 112 240 64 194 64 C150 64 112 112 112 167 L112 568 L112 568 L48 568 L48 568 L48 167 L48 -142 L112 -142 L112 31 C134 12 163 1 194 1 C226 1 254 12 278 31 L278 -4 L342 -4 L342 167 L342 528 L342 568 L278 568 L278 528 L278 528 Z " />
<glyph glyph-name="&amp;#x3bc;" unicode="&#x3bc;" horiz-adv-x="392" d="M278 528 L278 167 C278 112 240 64 194 64 C150 64 112 112 112 167 L112 568 L112 568 L48 568 L48 568 L48 167 L48 -142 L112 -142 L112 31 C134 12 163 1 194 1 C226 1 254 12 278 31 L278 -4 L342 -4 L342 167 L342 528 L342 568 L278 568 L278 528 L278 528 Z " />
<glyph glyph-name="paragraph" unicode="&#xb6;" horiz-adv-x="556" d="M372 778 L204 778 C118 778 48 706 48 618 L48 446 C48 358 118 286 204 286 L308 286 L308 0 L372 0 L372 286 L372 349 L372 713 L440 713 L440 0 L504 0 L504 776 L372 776 L372 778 L372 778 Z " />
<glyph glyph-name="periodcentered" unicode="&#xb7;" horiz-adv-x="170" d="M84 476 C55 476 31 452 31 422 C31 394 55 370 84 370 C113 370 137 394 137 422 C137 452 113 476 84 476 L84 476 Z " />
<glyph glyph-name="cedilla" unicode="&#xb8;" horiz-adv-x="206" d="M121 22 L59 22 C59 -24 79 -49 92 -65 C98 -73 103 -79 103 -82 C103 -92 79 -103 48 -103 L48 -166 C118 -166 166 -132 166 -82 C166 -56 152 -40 142 -26 C131 -12 121 -1 121 22 L121 22 Z " />
<glyph glyph-name="onesuperior" unicode="&#xb9;" horiz-adv-x="205" d="M157 810 L77 810 L31 757 L76 719 L97 743 L97 372 L157 372 L157 809 L156 809 L157 810 Z " />
<glyph glyph-name="ordmasculine" unicode="&#xba;" horiz-adv-x="391" d="M197 626 C116 626 50 552 50 461 L50 211 C50 120 116 46 197 46 C278 46 344 120 344 211 L344 461 C344 552 278 626 197 626 L197 626 Z M281 211 C281 156 242 108 197 108 C152 108 114 156 114 211 L114 461 C114 516 152 564 197 564 C242 564 281 516 281 461 L281 211 Z " />
<glyph glyph-name="guillemotright" unicode="&#xbb;" horiz-adv-x="449" d="M204 566 L316 389 L204 206 L258 173 L390 389 L258 600 L204 566 Z M60 566 L172 389 L60 206 L114 173 L246 389 L114 600 L60 566 Z " />
<glyph glyph-name="onequarter" unicode="&#xbc;" horiz-adv-x="556" d="M157 810 L77 810 L31 757 L76 719 L97 743 L97 372 L157 372 L157 809 L156 809 L157 810 Z M457 440 L403 440 L271 144 L398 144 L398 2 L457 2 L457 144 L491 144 L491 203 L457 203 L457 440 Z M398 203 L362 203 L398 286 L398 203 Z M79 0 L158 0 L441 805 L363 805 L79 0 L79 0 Z " />
<glyph glyph-name="onehalf" unicode="&#xbd;" horiz-adv-x="520" d="M157 810 L77 810 L31 757 L76 719 L97 743 L97 372 L157 372 L157 809 L156 809 L157 810 Z M510 329 C509 391 467 439 414 439 C361 439 319 389 319 323 L378 323 C378 356 397 380 414 380 C434 380 450 358 450 329 C451 272 424 240 392 200 C358 158 318 110 319 31 L319 2 L494 2 L494 61 L380 61 C388 102 410 131 438 163 C472 205 510 252 510 329 L510 329 Z M64 0 L143 0 L426 805 L348 805 L64 0 L64 0 Z " />
<glyph glyph-name="threequarters" unicode="&#xbe;" horiz-adv-x="553" d="M34 810 L34 751 L106 751 L23 636 L80 636 C140 636 149 569 149 528 C149 466 128 432 113 432 C96 432 77 456 77 490 L18 490 C18 425 60 373 113 373 C161 373 209 421 209 528 C209 618 173 666 130 684 L220 810 L34 810 Z M34 810 L34 751 L106 751 L23 636 L80 636 C140 636 149 569 149 528 C149 466 128 432 113 432 C96 432 77 456 77 490 L18 490 C18 425 60 373 113 373 C161 373 209 421 209 528 C209 618 173 666 130 684 L220 810 L34 810 Z M34 810 L34 751 L106 751 L23 636 L80 636 C140 636 149 569 149 528 C149 466 128 432 113 432 C96 432 77 456 77 490 L18 490 C18 425 60 373 113 373 C161 373 209 421 209 528 C209 618 173 666 130 684 L220 810 L34 810 Z M493 440 L439 440 L307 144 L434 144 L434 2 L493 2 L493 144 L527 144 L527 203 L493 203 L493 440 Z M434 203 L398 203 L434 286 L434 203 Z M107 0 L186 0 L469 805 L391 805 L107 0 L107 0 Z " />
<glyph glyph-name="questiondown" unicode="&#xbf;" horiz-adv-x="422" d="M276 644 L214 644 L214 586 L276 586 L276 644 Z M206 -156 C301 -156 378 -67 378 42 L314 42 C314 -32 266 -92 206 -92 C146 -92 97 -38 97 31 C96 145 134 187 179 238 C227 290 281 350 278 493 L215 491 C217 373 178 330 132 280 C85 228 32 169 34 31 C35 -74 110 -156 206 -156 L206 -156 Z " />
<glyph glyph-name="Agrave" unicode="&#xc0;" horiz-adv-x="458" d="M185 811 L29 0 L93 0 L138 232 L297 232 L341 0 L405 0 L252 811 L185 811 L185 811 Z M150 294 L219 649 L285 294 L150 294 L150 294 Z M194 997 L220 908 L262 908 L247 997 L194 997 L194 997 Z " />
<glyph glyph-name="Aacute" unicode="&#xc1;" horiz-adv-x="458" d="M185 811 L29 0 L93 0 L138 232 L297 232 L341 0 L405 0 L252 811 L185 811 L185 811 Z M150 294 L219 649 L285 294 L150 294 L150 294 Z M194 908 L236 908 L262 997 L210 997 L194 908 L194 908 Z " />
<glyph glyph-name="Acircumflex" unicode="&#xc2;" horiz-adv-x="458" d="M185 811 L29 0 L93 0 L138 232 L297 232 L341 0 L405 0 L252 811 L185 811 L185 811 Z M150 294 L219 649 L285 294 L150 294 L150 294 Z M57 825 L98 777 L229 882 L352 773 L392 821 L229 964 L57 825 Z " />
<glyph glyph-name="Atilde" unicode="&#xc3;" horiz-adv-x="458" d="M185 811 L29 0 L93 0 L138 232 L297 232 L341 0 L405 0 L252 811 L185 811 L185 811 Z M150 294 L219 649 L285 294 L150 294 L150 294 Z M205 909 C254 878 323 836 432 945 L387 990 C313 915 284 934 239 962 C213 978 183 997 146 997 C110 997 67 980 14 927 L60 883 C93 916 122 933 146 933 C146 933 146 933 146 933 C165 933 185 922 205 909 L205 909 Z " />
<glyph glyph-name="Adieresis" unicode="&#xc4;" horiz-adv-x="458" d="M185 811 L29 0 L93 0 L138 232 L297 232 L341 0 L405 0 L252 811 L185 811 L185 811 Z M150 294 L219 649 L285 294 L150 294 L150 294 Z M225 925 L283 925 L283 985 L225 985 L225 925 L225 925 Z M131 925 L190 925 L190 985 L131 985 L131 925 L131 925 Z " />
<glyph glyph-name="Aring" unicode="&#xc5;" horiz-adv-x="458" d="M185 811 L29 0 L93 0 L138 232 L297 232 L341 0 L405 0 L252 811 L185 811 L185 811 Z M150 294 L219 649 L285 294 L150 294 L150 294 Z M320 922 C320 971 281 1011 232 1011 C184 1011 144 971 144 922 C144 874 184 834 232 834 C281 834 320 874 320 922 L320 922 L320 922 Z M232 886 C212 886 198 903 198 922 C198 942 212 958 232 958 C252 958 266 942 266 922 C266 903 252 886 232 886 L232 886 Z " />
<glyph glyph-name="AE" unicode="&#xc6;" horiz-adv-x="677" d="M610 745 L610 809 L409 809 L353 809 L342 809 L43 0 L107 0 L193 232 L352 232 L353 154 L353 0 L355 0 L419 0 L610 0 L610 62 L418 62 L416 194 L416 338 L547 338 L547 401 L416 401 L416 745 L610 745 L610 745 Z M216 294 L347 649 L350 294 L216 294 L216 294 Z " />
<glyph glyph-name="Ccedilla" unicode="&#xc7;" horiz-adv-x="437" d="M196 749 L204 749 C232 749 257 738 277 718 C289 704 299 688 304 670 L365 686 C357 715 342 740 322 762 C291 794 249 811 204 811 L196 811 C103 811 29 734 29 640 L29 173 C29 78 103 0 196 0 L204 0 C275 0 337 47 361 114 L301 136 C287 92 247 64 204 64 L196 64 C138 64 93 113 93 173 L93 640 C93 700 138 749 196 749 L196 749 Z M248 -8 L186 -8 C186 -54 206 -79 219 -95 C225 -103 230 -109 230 -112 C230 -122 206 -133 175 -133 L175 -196 C245 -196 293 -162 293 -112 C293 -86 279 -70 269 -56 C258 -42 248 -31 248 -8 L248 -8 Z " />
<glyph glyph-name="Egrave" unicode="&#xc8;" horiz-adv-x="359" d="M34 0 L291 0 L291 62 L97 62 L97 338 L228 338 L228 401 L97 401 L97 748 L291 748 L291 811 L34 811 L34 0 L34 0 Z M144 997 L170 908 L212 908 L197 997 L144 997 L144 997 Z " />
<glyph glyph-name="Eacute" unicode="&#xc9;" horiz-adv-x="359" d="M34 0 L291 0 L291 62 L97 62 L97 338 L228 338 L228 401 L97 401 L97 748 L291 748 L291 811 L34 811 L34 0 L34 0 Z M144 908 L186 908 L212 997 L160 997 L144 908 L144 908 Z " />
<glyph glyph-name="Ecircumflex" unicode="&#xca;" horiz-adv-x="359" d="M34 0 L291 0 L291 62 L97 62 L97 338 L228 338 L228 401 L97 401 L97 748 L291 748 L291 811 L34 811 L34 0 L34 0 Z M9 906 L50 858 L181 963 L304 854 L344 902 L181 1045 L9 906 Z " />
<glyph glyph-name="Edieresis" unicode="&#xcb;" horiz-adv-x="359" d="M34 0 L291 0 L291 62 L97 62 L97 338 L228 338 L228 401 L97 401 L97 748 L291 748 L291 811 L34 811 L34 0 L34 0 Z M174 925 L232 925 L232 985 L174 985 L174 925 L174 925 Z M80 925 L139 925 L139 985 L80 985 L80 925 L80 925 Z " />
<glyph glyph-name="Igrave" unicode="&#xcc;" horiz-adv-x="169" d="M43 0 L107 0 L107 811 L43 811 L43 0 L43 0 Z M49 997 L75 908 L117 908 L102 997 L49 997 L49 997 Z " />
<glyph glyph-name="Iacute" unicode="&#xcd;" horiz-adv-x="169" d="M43 0 L107 0 L107 811 L43 811 L43 0 L43 0 Z M49 908 L91 908 L117 997 L65 997 L49 908 L49 908 Z " />
<glyph glyph-name="Icircumflex" unicode="&#xce;" horiz-adv-x="169" d="M43 0 L107 0 L107 811 L43 811 L43 0 L43 0 Z M-87 906 L-46 858 L85 963 L208 854 L248 902 L85 1045 L-87 906 Z " />
<glyph glyph-name="Idieresis" unicode="&#xcf;" horiz-adv-x="169" d="M43 0 L107 0 L107 811 L43 811 L43 0 L43 0 Z M80 925 L138 925 L138 985 L80 985 L80 925 L80 925 Z M-14 925 L45 925 L45 985 L-14 985 L-14 925 L-14 925 Z " />
<glyph glyph-name="Eth" unicode="&#xd0;" horiz-adv-x="445" d="M230 808 L128 808 L65 808 L65 433 L20 433 L20 371 L65 371 L65 0 L76 0 L128 0 L233 0 C319 0 390 74 390 166 L390 644 C390 734 318 808 230 808 L230 808 Z M326 166 C326 109 284 64 233 64 L128 64 L128 371 L265 371 L265 433 L128 433 L128 745 L230 745 C283 745 326 700 326 644 L326 166 L326 166 Z " />
<glyph glyph-name="Ntilde" unicode="&#xd1;" horiz-adv-x="454" d="M341 811 L341 168 L115 811 L41 811 L41 0 L105 0 L105 649 L333 0 L403 0 L403 811 L341 811 L341 811 Z M203 909 C252 878 321 836 430 945 L385 990 C311 915 282 934 237 962 C211 978 181 997 144 997 C108 997 65 980 12 927 L58 883 C91 916 120 933 144 933 C144 933 144 933 144 933 C163 933 183 922 203 909 L203 909 Z " />
<glyph glyph-name="Ograve" unicode="&#xd2;" horiz-adv-x="438" d="M209 811 L201 811 C108 811 34 737 34 644 L34 167 C34 74 108 0 201 0 L209 0 C301 0 376 74 376 167 L376 644 C376 737 301 811 209 811 L209 811 Z M313 167 C313 109 267 62 209 62 L201 62 C143 62 97 109 97 167 L97 644 C97 702 143 748 201 748 L209 748 C267 748 313 702 313 644 L313 167 L313 167 Z M184 997 L210 908 L252 908 L237 997 L184 997 L184 997 Z " />
<glyph glyph-name="Oacute" unicode="&#xd3;" horiz-adv-x="438" d="M209 811 L201 811 C108 811 34 737 34 644 L34 167 C34 74 108 0 201 0 L209 0 C301 0 376 74 376 167 L376 644 C376 737 301 811 209 811 L209 811 Z M313 167 C313 109 267 62 209 62 L201 62 C143 62 97 109 97 167 L97 644 C97 702 143 748 201 748 L209 748 C267 748 313 702 313 644 L313 167 L313 167 Z M184 888 L226 888 L252 977 L200 977 L184 888 L184 888 Z " />
<glyph glyph-name="Ocircumflex" unicode="&#xd4;" horiz-adv-x="438" d="M209 811 L201 811 C108 811 34 737 34 644 L34 167 C34 74 108 0 201 0 L209 0 C301 0 376 74 376 167 L376 644 C376 737 301 811 209 811 L209 811 Z M313 167 C313 109 267 62 209 62 L201 62 C143 62 97 109 97 167 L97 644 C97 702 143 748 201 748 L209 748 C267 748 313 702 313 644 L313 167 L313 167 Z M48 906 L89 858 L220 963 L343 854 L383 902 L220 1045 L48 906 Z " />
<glyph glyph-name="Otilde" unicode="&#xd5;" horiz-adv-x="438" d="M209 811 L201 811 C108 811 34 737 34 644 L34 167 C34 74 108 0 201 0 L209 0 C301 0 376 74 376 167 L376 644 C376 737 301 811 209 811 L209 811 Z M313 167 C313 109 267 62 209 62 L201 62 C143 62 97 109 97 167 L97 644 C97 702 143 748 201 748 L209 748 C267 748 313 702 313 644 L313 167 L313 167 Z M196 909 C245 878 314 836 423 945 L378 990 C304 915 275 934 230 962 C204 978 174 997 137 997 C101 997 58 980 5 927 L51 883 C84 916 113 933 137 933 C137 933 137 933 137 933 C156 933 176 922 196 909 L196 909 Z " />
<glyph glyph-name="Odieresis" unicode="&#xd6;" horiz-adv-x="438" d="M251 845 L338 845 L338 935 L251 935 L251 845 Z M109 845 L198 845 L198 935 L109 935 L109 845 Z M209 811 L201 811 C108 811 34 737 34 644 L34 167 C34 74 108 0 201 0 L209 0 C301 0 376 74 376 167 L376 644 C376 737 301 811 209 811 L209 811 Z M313 167 C313 109 267 62 209 62 L201 62 C143 62 97 109 97 167 L97 644 C97 702 143 748 201 748 L209 748 C267 748 313 702 313 644 L313 167 L313 167 Z " />
<glyph glyph-name="multiply" unicode="&#xd7;" horiz-adv-x="365" d="M276 473 L184 380 L91 473 L47 428 L139 336 L47 244 L91 199 L184 292 L276 199 L320 244 L228 336 L320 428 L276 473 L276 473 Z " />
<glyph glyph-name="Oslash" unicode="&#xd8;" horiz-adv-x="452" d="M340 805 L318 737 C290 755 258 766 223 766 L215 766 C122 766 48 691 48 600 L48 157 C48 110 66 70 96 40 L67 -53 L127 -72 L151 2 C170 -5 192 -10 215 -10 L223 -10 C316 -10 390 65 390 157 L390 600 C390 630 382 660 367 684 L400 786 L340 805 L340 805 Z M112 157 L112 600 C112 656 157 703 215 703 L223 703 C252 703 278 691 298 672 L120 114 C114 127 112 142 112 157 L112 157 Z M328 157 C328 100 281 53 223 53 L215 53 C198 53 184 56 170 64 L328 559 L328 157 L328 157 Z " />
<glyph glyph-name="Ugrave" unicode="&#xd9;" horiz-adv-x="446" d="M313 167 C313 109 267 64 209 64 L201 64 C143 64 97 109 97 167 L97 811 L34 811 L34 167 C34 74 108 0 201 0 L209 0 C301 0 376 74 376 167 L376 811 L313 811 L313 167 L313 167 Z M187 997 L213 908 L255 908 L240 997 L187 997 L187 997 Z " />
<glyph glyph-name="Uacute" unicode="&#xda;" horiz-adv-x="446" d="M313 167 C313 109 267 64 209 64 L201 64 C143 64 97 109 97 167 L97 811 L34 811 L34 167 C34 74 108 0 201 0 L209 0 C301 0 376 74 376 167 L376 811 L313 811 L313 167 L313 167 Z M187 908 L229 908 L255 997 L203 997 L187 908 L187 908 Z " />
<glyph glyph-name="Ucircumflex" unicode="&#xdb;" horiz-adv-x="446" d="M313 167 C313 109 267 64 209 64 L201 64 C143 64 97 109 97 167 L97 811 L34 811 L34 167 C34 74 108 0 201 0 L209 0 C301 0 376 74 376 167 L376 811 L313 811 L313 167 L313 167 Z M51 906 L92 858 L223 963 L346 854 L386 902 L223 1045 L51 906 Z " />
<glyph glyph-name="Udieresis" unicode="&#xdc;" horiz-adv-x="446" d="M313 167 C313 109 267 64 209 64 L201 64 C143 64 97 109 97 167 L97 811 L34 811 L34 167 C34 74 108 0 201 0 L209 0 C301 0 376 74 376 167 L376 811 L313 811 L313 167 L313 167 Z M218 925 L276 925 L276 985 L218 985 L218 925 L218 925 Z M124 925 L183 925 L183 985 L124 985 L124 925 L124 925 Z " />
<glyph glyph-name="Yacute" unicode="&#xdd;" horiz-adv-x="466" d="M210 428 L95 811 L29 811 L179 312 L179 0 L243 0 L243 314 L388 811 L322 811 L210 428 L210 428 Z M197 908 L239 908 L265 997 L213 997 L197 908 L197 908 Z " />
<glyph glyph-name="Thorn" unicode="&#xde;" horiz-adv-x="390" d="M209 702 C178 702 149 691 126 672 L126 823 L62 823 L62 535 L62 287 L62 -133 L126 -133 L126 150 C149 131 178 120 209 120 C290 120 356 205 356 298 L356 535 C356 628 290 702 209 702 L209 702 Z M293 287 C293 230 254 182 209 182 C164 182 126 230 126 287 L126 535 C126 592 164 638 209 638 C254 638 293 592 293 535 L293 287 Z " />
<glyph glyph-name="germandbls" unicode="&#xdf;" horiz-adv-x="468" d="M332 476 C319 487 307 496 294 503 C330 528 360 568 368 625 C382 730 334 781 304 802 C254 835 185 839 130 810 C78 784 48 734 48 677 L48 0 L112 0 L112 677 C112 722 140 745 158 755 C193 773 238 770 268 750 C299 727 312 688 306 634 C294 540 193 526 184 524 C182 524 181 524 181 524 L188 462 C190 462 190 462 191 462 C198 462 250 466 292 428 C330 394 350 334 350 248 C350 175 336 125 307 97 C275 65 228 66 190 67 C184 67 178 68 173 68 L173 5 C178 5 182 5 188 5 C233 4 300 1 352 52 C394 92 413 157 413 248 C413 353 386 430 332 476 L332 476 Z " />
<glyph glyph-name="agrave" unicode="&#xe0;" horiz-adv-x="400" d="M221 583 L215 583 L215 583 C149 581 95 526 95 460 L158 460 C158 492 185 518 218 520 C251 518 277 490 277 454 L277 373 C253 394 223 406 191 406 C110 406 44 330 44 239 L44 168 C44 76 110 0 191 0 C223 0 253 12 277 31 L277 0 L340 0 L341 454 C341 523 287 580 221 583 L221 583 Z M275 168 C275 112 236 64 191 64 C146 64 108 112 108 168 L108 239 C108 295 146 342 191 342 C236 342 275 295 275 239 L275 168 L275 168 Z M164 773 L190 684 L232 684 L217 773 L164 773 L164 773 Z " />
<glyph glyph-name="aacute" unicode="&#xe1;" horiz-adv-x="400" d="M221 583 L215 583 L215 583 C149 581 95 526 95 460 L158 460 C158 492 185 518 218 520 C251 518 277 490 277 454 L277 373 C253 394 223 406 191 406 C110 406 44 330 44 239 L44 168 C44 76 110 0 191 0 C223 0 253 12 277 31 L277 0 L340 0 L341 454 C341 523 287 580 221 583 L221 583 Z M275 168 C275 112 236 64 191 64 C146 64 108 112 108 168 L108 239 C108 295 146 342 191 342 C236 342 275 295 275 239 L275 168 L275 168 Z M214 684 L256 684 L282 773 L230 773 L214 684 L214 684 Z " />
<glyph glyph-name="acircumflex" unicode="&#xe2;" horiz-adv-x="400" d="M221 583 L215 583 L215 583 C149 581 95 526 95 460 L158 460 C158 492 185 518 218 520 C251 518 277 490 277 454 L277 373 C253 394 223 406 191 406 C110 406 44 330 44 239 L44 168 C44 76 110 0 191 0 C223 0 253 12 277 31 L277 0 L340 0 L341 454 C341 523 287 580 221 583 L221 583 Z M275 168 C275 112 236 64 191 64 C146 64 108 112 108 168 L108 239 C108 295 146 342 191 342 C236 342 275 295 275 239 L275 168 L275 168 Z M29 682 L70 634 L201 739 L324 630 L364 678 L201 821 L29 682 Z " />
<glyph glyph-name="atilde" unicode="&#xe3;" horiz-adv-x="400" d="M221 583 L215 583 L215 583 C149 581 95 526 95 460 L158 460 C158 492 185 518 218 520 C251 518 277 490 277 454 L277 373 C253 394 223 406 191 406 C110 406 44 330 44 239 L44 168 C44 76 110 0 191 0 C223 0 253 12 277 31 L277 0 L340 0 L341 454 C341 523 287 580 221 583 L221 583 Z M275 168 C275 112 236 64 191 64 C146 64 108 112 108 168 L108 239 C108 295 146 342 191 342 C236 342 275 295 275 239 L275 168 L275 168 Z M196 674 C234 650 288 618 373 702 L338 737 C280 679 258 694 223 715 C202 728 179 743 150 743 C122 743 89 729 48 688 L84 654 C109 680 132 693 150 693 C150 693 150 693 150 693 C165 693 181 684 196 674 L196 674 Z " />
<glyph glyph-name="adieresis" unicode="&#xe4;" horiz-adv-x="400" d="M221 583 L215 583 L215 583 C149 581 95 526 95 460 L158 460 C158 492 185 518 218 520 C251 518 277 490 277 454 L277 373 C253 394 223 406 191 406 C110 406 44 330 44 239 L44 168 C44 76 110 0 191 0 C223 0 253 12 277 31 L277 0 L340 0 L341 454 C341 523 287 580 221 583 L221 583 Z M275 168 C275 112 236 64 191 64 C146 64 108 112 108 168 L108 239 C108 295 146 342 191 342 C236 342 275 295 275 239 L275 168 L275 168 Z M195 701 L253 701 L253 761 L195 761 L195 701 L195 701 Z M101 701 L160 701 L160 761 L101 761 L101 701 L101 701 Z " />
<glyph glyph-name="aring" unicode="&#xe5;" horiz-adv-x="400" d="M221 583 L215 583 L215 583 C149 581 95 526 95 460 L158 460 C158 492 185 518 218 520 C251 518 277 490 277 454 L277 373 C253 394 223 406 191 406 C110 406 44 330 44 239 L44 168 C44 76 110 0 191 0 C223 0 253 12 277 31 L277 0 L340 0 L341 454 C341 523 287 580 221 583 L221 583 Z M275 168 C275 112 236 64 191 64 C146 64 108 112 108 168 L108 239 C108 295 146 342 191 342 C236 342 275 295 275 239 L275 168 L275 168 Z M292 720 C292 769 253 809 204 809 C156 809 116 769 116 720 C116 672 156 632 204 632 C253 632 292 672 292 720 L292 720 L292 720 Z M204 684 C184 684 170 701 170 720 C170 740 184 756 204 756 C224 756 238 740 238 720 C238 701 224 684 204 684 L204 684 Z " />
<glyph glyph-name="ae" unicode="&#xe6;" horiz-adv-x="619" d="M572 290 L572 408 C572 504 506 583 425 583 C384 583 347 563 320 530 C299 560 264 581 226 583 L220 583 C154 581 100 526 100 460 L163 460 C163 492 190 518 223 520 C256 518 282 490 282 454 L282 446 C280 434 278 421 278 408 L278 376 C254 395 227 406 196 406 C115 406 49 330 49 239 L49 168 C49 76 115 0 196 0 C228 0 258 12 282 31 L282 0 L344 0 L344 29 C367 11 395 0 425 0 C506 0 572 79 572 175 L509 175 C509 115 470 65 425 65 C388 65 354 101 344 148 L346 290 L572 290 L572 290 Z M425 518 C470 518 509 468 509 408 L509 354 L346 354 L346 439 C356 485 389 518 425 518 L425 518 Z M196 64 C151 64 113 112 113 168 L113 239 C113 295 151 342 196 342 C236 342 271 305 278 256 L278 175 C278 169 278 163 280 157 C275 106 239 64 196 64 L196 64 Z " />
<glyph glyph-name="ccedilla" unicode="&#xe7;" horiz-adv-x="352" d="M191 520 C215 520 238 506 253 482 L306 518 C277 559 236 583 191 583 C110 583 44 506 44 410 L44 172 C44 77 110 0 191 0 C235 0 276 23 305 62 L253 98 C236 76 215 62 191 62 C146 62 108 113 108 172 L108 410 C108 470 146 520 191 520 L191 520 Z M229 -8 L167 -8 C167 -54 187 -79 200 -95 C206 -103 211 -109 211 -112 C211 -122 187 -133 156 -133 L156 -196 C226 -196 274 -162 274 -112 C274 -86 260 -70 250 -56 C239 -42 229 -31 229 -8 L229 -8 Z " />
<glyph glyph-name="egrave" unicode="&#xe8;" horiz-adv-x="391" d="M190 583 C109 583 43 504 43 408 L43 175 C43 79 109 0 190 0 C271 0 337 79 337 175 L274 175 C274 115 235 65 190 65 C145 65 107 115 107 175 L107 290 L337 290 L337 408 C337 504 271 583 190 583 L190 583 Z M274 354 L107 354 L107 408 C107 468 145 518 190 518 C235 518 274 468 274 408 L274 354 L274 354 Z M160 773 L186 684 L228 684 L213 773 L160 773 L160 773 Z " />
<glyph glyph-name="eacute" unicode="&#xe9;" horiz-adv-x="391" d="M190 583 C109 583 43 504 43 408 L43 175 C43 79 109 0 190 0 C271 0 337 79 337 175 L274 175 C274 115 235 65 190 65 C145 65 107 115 107 175 L107 290 L337 290 L337 408 C337 504 271 583 190 583 L190 583 Z M274 354 L107 354 L107 408 C107 468 145 518 190 518 C235 518 274 468 274 408 L274 354 L274 354 Z M160 684 L202 684 L228 773 L176 773 L160 684 L160 684 Z " />
<glyph glyph-name="ecircumflex" unicode="&#xea;" horiz-adv-x="391" d="M190 583 C109 583 43 504 43 408 L43 175 C43 79 109 0 190 0 C271 0 337 79 337 175 L274 175 C274 115 235 65 190 65 C145 65 107 115 107 175 L107 290 L337 290 L337 408 C337 504 271 583 190 583 L190 583 Z M274 354 L107 354 L107 408 C107 468 145 518 190 518 C235 518 274 468 274 408 L274 354 L274 354 Z M25 682 L66 634 L197 739 L320 630 L360 678 L197 821 L25 682 Z " />
<glyph glyph-name="edieresis" unicode="&#xeb;" horiz-adv-x="391" d="M190 583 C109 583 43 504 43 408 L43 175 C43 79 109 0 190 0 C271 0 337 79 337 175 L274 175 C274 115 235 65 190 65 C145 65 107 115 107 175 L107 290 L337 290 L337 408 C337 504 271 583 190 583 L190 583 Z M274 354 L107 354 L107 408 C107 468 145 518 190 518 C235 518 274 468 274 408 L274 354 L274 354 Z M207 652 L265 652 L265 712 L207 712 L207 652 L207 652 Z M113 652 L172 652 L172 712 L113 712 L113 652 L113 652 Z " />
<glyph glyph-name="igrave" unicode="&#xec;" horiz-adv-x="220" d="M62 0 L126 0 L126 583 L62 583 L62 0 L62 0 Z M76 773 L102 684 L144 684 L129 773 L76 773 L76 773 Z " />
<glyph glyph-name="iacute" unicode="&#xed;" horiz-adv-x="220" d="M62 0 L126 0 L126 583 L62 583 L62 0 L62 0 Z M76 684 L118 684 L144 773 L92 773 L76 684 L76 684 Z " />
<glyph glyph-name="icircumflex" unicode="&#xee;" horiz-adv-x="220" d="M62 0 L126 0 L126 583 L62 583 L62 0 L62 0 Z M-70 719 L-29 671 L102 776 L225 667 L265 715 L102 858 L-70 719 Z " />
<glyph glyph-name="idieresis" unicode="&#xef;" horiz-adv-x="212" d="M62 0 L126 0 L126 583 L62 583 L62 0 L62 0 Z M105 701 L163 701 L163 761 L105 761 L105 701 L105 701 Z M11 701 L70 701 L70 761 L11 761 L11 701 L11 701 Z " />
<glyph glyph-name="eth" unicode="&#xf0;" horiz-adv-x="402" d="M233 774 L233 857 L169 857 L169 773 C100 757 48 690 48 610 L112 610 C112 654 136 691 169 707 L169 608 L233 608 L233 708 C269 695 295 655 295 610 L295 484 C269 504 238 516 203 516 C118 516 48 442 48 349 L48 175 C48 173 48 169 48 167 L48 167 C48 74 118 0 203 0 C288 0 358 74 358 167 L358 175 L358 349 L358 610 C358 691 304 760 233 774 L233 774 Z M112 349 C112 407 152 454 203 454 C253 454 295 407 295 349 L295 175 C295 118 253 72 203 72 C152 72 112 118 112 175 L112 349 L112 349 Z " />
<glyph glyph-name="ntilde" unicode="&#xf1;" horiz-adv-x="396" d="M190 583 C159 583 130 572 107 553 L107 583 L43 583 L43 416 L43 0 L107 0 L107 416 C107 473 145 521 190 521 C235 521 274 473 274 416 L274 0 L337 0 L337 416 C337 509 271 583 190 583 L190 583 Z M175 685 C224 654 293 612 402 721 L357 766 C283 691 254 710 209 738 C183 754 153 773 116 773 C80 773 37 756 -16 703 L30 659 C63 692 92 709 116 709 C116 709 116 709 116 709 C135 709 155 698 175 685 L175 685 Z " />
<glyph glyph-name="ograve" unicode="&#xf2;" horiz-adv-x="391" d="M193 583 C112 583 46 509 46 418 L46 166 C46 74 112 0 193 0 C274 0 340 74 340 166 L340 418 C340 509 274 583 193 583 L193 583 Z M277 166 C277 110 238 62 193 62 C148 62 110 110 110 166 L110 418 C110 473 148 521 193 521 C238 521 277 473 277 418 L277 166 L277 166 Z M160 773 L186 684 L228 684 L213 773 L160 773 L160 773 Z " />
<glyph glyph-name="oacute" unicode="&#xf3;" horiz-adv-x="391" d="M193 583 C112 583 46 509 46 418 L46 166 C46 74 112 0 193 0 C274 0 340 74 340 166 L340 418 C340 509 274 583 193 583 L193 583 Z M277 166 C277 110 238 62 193 62 C148 62 110 110 110 166 L110 418 C110 473 148 521 193 521 C238 521 277 473 277 418 L277 166 L277 166 Z M160 684 L202 684 L228 773 L176 773 L160 684 L160 684 Z " />
<glyph glyph-name="ocircumflex" unicode="&#xf4;" horiz-adv-x="391" d="M193 583 C112 583 46 509 46 418 L46 166 C46 74 112 0 193 0 C274 0 340 74 340 166 L340 418 C340 509 274 583 193 583 L193 583 Z M277 166 C277 110 238 62 193 62 C148 62 110 110 110 166 L110 418 C110 473 148 521 193 521 C238 521 277 473 277 418 L277 166 L277 166 Z M25 682 L66 634 L197 739 L320 630 L360 678 L197 821 L25 682 Z " />
<glyph glyph-name="otilde" unicode="&#xf5;" horiz-adv-x="391" d="M193 583 C112 583 46 509 46 418 L46 166 C46 74 112 0 193 0 C274 0 340 74 340 166 L340 418 C340 509 274 583 193 583 L193 583 Z M277 166 C277 110 238 62 193 62 C148 62 110 110 110 166 L110 418 C110 473 148 521 193 521 C238 521 277 473 277 418 L277 166 L277 166 Z M172 685 C221 654 290 612 399 721 L354 766 C280 691 251 710 206 738 C180 754 150 773 113 773 C77 773 34 756 -19 703 L27 659 C60 692 89 709 113 709 C113 709 113 709 113 709 C132 709 152 698 172 685 L172 685 Z " />
<glyph glyph-name="odieresis" unicode="&#xf6;" horiz-adv-x="391" d="M193 583 C112 583 46 509 46 418 L46 166 C46 74 112 0 193 0 C274 0 340 74 340 166 L340 418 C340 509 274 583 193 583 L193 583 Z M277 166 C277 110 238 62 193 62 C148 62 110 110 110 166 L110 418 C110 473 148 521 193 521 C238 521 277 473 277 418 L277 166 L277 166 Z M191 701 L249 701 L249 761 L191 761 L191 701 L191 701 Z M97 701 L156 701 L156 761 L97 761 L97 701 L97 701 Z " />
<glyph glyph-name="divide" unicode="&#xf7;" horiz-adv-x="415" d="M210 454 C229 454 245 469 245 490 C245 509 229 524 210 524 C191 524 175 509 175 490 C175 469 191 454 210 454 L210 454 Z M210 275 C191 275 175 259 175 240 C175 221 191 205 210 205 C229 205 245 221 245 240 C245 259 229 275 210 275 L210 275 Z M48 329 L372 329 L372 391 L48 391 L48 329 L48 329 Z " />
<glyph glyph-name="oslash" unicode="&#xf8;" horiz-adv-x="390" d="M317 571 L257 590 L239 533 C226 538 210 541 194 541 C114 541 48 467 48 374 L48 156 C48 114 62 76 85 46 L54 -50 L114 -70 L137 2 C155 -6 174 -11 194 -11 C276 -11 342 64 342 156 L342 374 C342 422 323 467 294 497 L317 571 L317 571 Z M112 156 L112 374 C112 431 150 478 194 478 C204 478 212 476 220 473 L113 134 C112 142 112 149 112 156 L112 156 Z M278 374 L278 156 C278 100 240 53 194 53 C181 53 168 56 157 64 L270 420 C275 407 278 391 278 374 L278 374 Z " />
<glyph glyph-name="ugrave" unicode="&#xf9;" horiz-adv-x="391" d="M293 551 L293 167 C293 110 254 64 209 64 C164 64 126 110 126 167 L126 583 L62 583 L62 167 C62 76 128 0 209 0 C240 0 269 12 293 30 L293 0 L356 0 L356 167 L356 551 L356 583 L293 583 L293 551 L293 551 Z M160 773 L186 684 L228 684 L213 773 L160 773 L160 773 Z " />
<glyph glyph-name="uacute" unicode="&#xfa;" horiz-adv-x="391" d="M293 551 L293 167 C293 110 254 64 209 64 C164 64 126 110 126 167 L126 583 L62 583 L62 167 C62 76 128 0 209 0 C240 0 269 12 293 30 L293 0 L356 0 L356 167 L356 551 L356 583 L293 583 L293 551 L293 551 Z M160 684 L202 684 L228 773 L176 773 L160 684 L160 684 Z " />
<glyph glyph-name="ucircumflex" unicode="&#xfb;" horiz-adv-x="391" d="M293 551 L293 167 C293 110 254 64 209 64 C164 64 126 110 126 167 L126 583 L62 583 L62 167 C62 76 128 0 209 0 C240 0 269 12 293 30 L293 0 L356 0 L356 167 L356 551 L356 583 L293 583 L293 551 L293 551 Z M25 682 L66 634 L197 739 L320 630 L360 678 L197 821 L25 682 Z " />
<glyph glyph-name="udieresis" unicode="&#xfc;" horiz-adv-x="391" d="M293 551 L293 167 C293 110 254 64 209 64 C164 64 126 110 126 167 L126 583 L62 583 L62 167 C62 76 128 0 209 0 C240 0 269 12 293 30 L293 0 L356 0 L356 167 L356 551 L356 583 L293 583 L293 551 L293 551 Z M191 701 L249 701 L249 761 L191 761 L191 701 L191 701 Z M97 701 L156 701 L156 761 L97 761 L97 701 L97 701 Z " />
<glyph glyph-name="yacute" unicode="&#xfd;" horiz-adv-x="398" d="M263 167 C263 110 224 62 179 62 C134 62 96 110 96 167 L96 583 L32 583 L32 167 C32 74 98 0 179 0 C210 0 239 11 263 30 L263 0 C263 -59 224 -108 179 -108 C157 -108 142 -97 131 -88 L88 -134 C114 -158 146 -172 179 -172 C260 -172 326 -95 326 0 L326 167 L326 583 L263 583 L263 167 Z M163 684 L205 684 L231 773 L179 773 L163 684 L163 684 Z " />
<glyph glyph-name="thorn" unicode="&#xfe;" horiz-adv-x="406" d="M209 582 C178 582 149 571 126 552 L126 703 L62 703 L62 415 L62 167 L62 -169 L126 -169 L126 30 C149 11 178 0 209 0 C290 0 356 85 356 178 L356 415 C356 508 290 582 209 582 L209 582 Z M293 167 C293 110 254 62 209 62 C164 62 126 110 126 167 L126 415 C126 472 164 518 209 518 C254 518 293 472 293 415 L293 167 Z " />
<glyph glyph-name="ydieresis" unicode="&#xff;" horiz-adv-x="398" d="M263 167 C263 110 224 62 179 62 C134 62 96 110 96 167 L96 583 L32 583 L32 167 C32 74 98 0 179 0 C210 0 239 11 263 30 L263 0 C263 -59 224 -108 179 -108 C157 -108 142 -97 131 -88 L88 -134 C114 -158 146 -172 179 -172 C260 -172 326 -95 326 0 L326 167 L326 583 L263 583 L263 167 Z M194 701 L252 701 L252 761 L194 761 L194 701 L194 701 Z M100 701 L159 701 L159 761 L100 761 L100 701 L100 701 Z " />
<glyph glyph-name="Amacron" unicode="&#x100;" horiz-adv-x="458" d="M185 811 L29 0 L93 0 L138 232 L297 232 L341 0 L405 0 L252 811 L185 811 L185 811 Z M150 294 L219 649 L285 294 L150 294 L150 294 Z M226 981 L108 1030 L84 973 L226 913 L371 975 L346 1033 L226 981 L226 981 Z " />
<glyph glyph-name="amacron" unicode="&#x101;" horiz-adv-x="400" d="M221 583 L215 583 L215 583 C149 581 95 526 95 460 L158 460 C158 492 185 518 218 520 C251 518 277 490 277 454 L277 373 C253 394 223 406 191 406 C110 406 44 330 44 239 L44 168 C44 76 110 0 191 0 C223 0 253 12 277 31 L277 0 L340 0 L341 454 C341 523 287 580 221 583 L221 583 Z M275 168 C275 112 236 64 191 64 C146 64 108 112 108 168 L108 239 C108 295 146 342 191 342 C236 342 275 295 275 239 L275 168 L275 168 Z M214 757 L96 806 L72 749 L214 689 L359 751 L334 809 L214 757 L214 757 Z " />
<glyph glyph-name="Abreve" unicode="&#x102;" horiz-adv-x="458" d="M185 811 L29 0 L93 0 L138 232 L297 232 L341 0 L405 0 L252 811 L185 811 L185 811 Z M150 294 L219 649 L285 294 L150 294 L150 294 Z M229 930 C185 930 147 976 147 1033 L83 1033 C83 940 149 866 229 866 C311 866 377 940 377 1033 L313 1033 C313 976 275 930 229 930 L229 930 Z " />
<glyph glyph-name="abreve" unicode="&#x103;" horiz-adv-x="400" d="M221 583 L215 583 L215 583 C149 581 95 526 95 460 L158 460 C158 492 185 518 218 520 C251 518 277 490 277 454 L277 373 C253 394 223 406 191 406 C110 406 44 330 44 239 L44 168 C44 76 110 0 191 0 C223 0 253 12 277 31 L277 0 L340 0 L341 454 C341 523 287 580 221 583 L221 583 Z M275 168 C275 112 236 64 191 64 C146 64 108 112 108 168 L108 239 C108 295 146 342 191 342 C236 342 275 295 275 239 L275 168 L275 168 Z M199 706 C155 706 117 752 117 809 L53 809 C53 716 119 642 199 642 C281 642 347 716 347 809 L283 809 C283 752 245 706 199 706 L199 706 Z " />
<glyph glyph-name="Aogonek" unicode="&#x104;" horiz-adv-x="458" d="M185 811 L29 0 L93 0 L138 232 L297 232 L341 0 L405 0 L252 811 L185 811 L185 811 Z M150 294 L219 649 L285 294 L150 294 L150 294 Z M369 -132 C369 -129 372 -123 378 -115 C391 -99 412 -74 412 -28 L349 -28 C349 -51 341 -62 329 -76 C318 -90 305 -106 305 -132 C305 -182 353 -216 423 -216 L423 -153 C391 -153 369 -142 369 -132 L369 -132 Z " />
<glyph glyph-name="aogonek" unicode="&#x105;" horiz-adv-x="400" d="M221 583 L215 583 L215 583 C149 581 95 526 95 460 L158 460 C158 492 185 518 218 520 C251 518 277 490 277 454 L277 373 C253 394 223 406 191 406 C110 406 44 330 44 239 L44 168 C44 76 110 0 191 0 C223 0 253 12 277 31 L277 0 L340 0 L341 454 C341 523 287 580 221 583 L221 583 Z M275 168 C275 112 236 64 191 64 C146 64 108 112 108 168 L108 239 C108 295 146 342 191 342 C236 342 275 295 275 239 L275 168 L275 168 Z M302 -131 C302 -128 305 -122 311 -114 C324 -98 345 -73 345 -27 L282 -27 C282 -50 274 -61 262 -75 C251 -89 238 -105 238 -131 C238 -181 286 -215 356 -215 L356 -152 C324 -152 302 -141 302 -131 L302 -131 Z " />
<glyph glyph-name="Cacute" unicode="&#x106;" horiz-adv-x="437" d="M196 749 L204 749 C232 749 257 738 277 718 C289 704 299 688 304 670 L365 686 C357 715 342 740 322 762 C291 794 249 811 204 811 L196 811 C103 811 29 734 29 640 L29 173 C29 78 103 0 196 0 L204 0 C275 0 337 47 361 114 L301 136 C287 92 247 64 204 64 L196 64 C138 64 93 113 93 173 L93 640 C93 700 138 749 196 749 L196 749 Z M182 908 L224 908 L250 997 L198 997 L182 908 L182 908 Z " />
<glyph glyph-name="cacute" unicode="&#x107;" horiz-adv-x="352" d="M191 520 C215 520 238 506 253 482 L306 518 C277 559 236 583 191 583 C110 583 44 506 44 410 L44 172 C44 77 110 0 191 0 C235 0 276 23 305 62 L253 98 C236 76 215 62 191 62 C146 62 108 113 108 172 L108 410 C108 470 146 520 191 520 L191 520 Z M140 684 L182 684 L208 773 L156 773 L140 684 L140 684 Z " />
<glyph glyph-name="Ccircumflex" unicode="&#x108;" horiz-adv-x="437" d="M196 749 L204 749 C232 749 257 738 277 718 C289 704 299 688 304 670 L365 686 C357 715 342 740 322 762 C291 794 249 811 204 811 L196 811 C103 811 29 734 29 640 L29 173 C29 78 103 0 196 0 L204 0 C275 0 337 47 361 114 L301 136 C287 92 247 64 204 64 L196 64 C138 64 93 113 93 173 L93 640 C93 700 138 749 196 749 L196 749 Z M47 906 L88 858 L219 963 L342 854 L382 902 L219 1045 L47 906 Z " />
<glyph glyph-name="ccircumflex" unicode="&#x109;" horiz-adv-x="352" d="M191 520 C215 520 238 506 253 482 L306 518 C277 559 236 583 191 583 C110 583 44 506 44 410 L44 172 C44 77 110 0 191 0 C235 0 276 23 305 62 L253 98 C236 76 215 62 191 62 C146 62 108 113 108 172 L108 410 C108 470 146 520 191 520 L191 520 Z M6 682 L47 634 L178 739 L301 630 L341 678 L178 821 L6 682 Z " />
<glyph glyph-name="Cdotaccent" unicode="&#x10a;" horiz-adv-x="437" d="M196 749 L204 749 C232 749 257 738 277 718 C289 704 299 688 304 670 L365 686 C357 715 342 740 322 762 C291 794 249 811 204 811 L196 811 C103 811 29 734 29 640 L29 173 C29 78 103 0 196 0 L204 0 C275 0 337 47 361 114 L301 136 C287 92 247 64 204 64 L196 64 C138 64 93 113 93 173 L93 640 C93 700 138 749 196 749 L196 749 Z M216 963 C235 963 251 979 251 998 C251 1017 235 1033 216 1033 C197 1033 181 1017 181 998 C181 979 197 963 216 963 L216 963 Z " />
<glyph glyph-name="cdotaccent" unicode="&#x10b;" horiz-adv-x="352" d="M191 520 C215 520 238 506 253 482 L306 518 C277 559 236 583 191 583 C110 583 44 506 44 410 L44 172 C44 77 110 0 191 0 C235 0 276 23 305 62 L253 98 C236 76 215 62 191 62 C146 62 108 113 108 172 L108 410 C108 470 146 520 191 520 L191 520 Z M174 739 C193 739 209 755 209 774 C209 793 193 809 174 809 C155 809 139 793 139 774 C139 755 155 739 174 739 L174 739 Z " />
<glyph glyph-name="Ccaron" unicode="&#x10c;" horiz-adv-x="437" d="M196 749 L204 749 C232 749 257 738 277 718 C289 704 299 688 304 670 L365 686 C357 715 342 740 322 762 C291 794 249 811 204 811 L196 811 C103 811 29 734 29 640 L29 173 C29 78 103 0 196 0 L204 0 C275 0 337 47 361 114 L301 136 C287 92 247 64 204 64 L196 64 C138 64 93 113 93 173 L93 640 C93 700 138 749 196 749 L196 749 Z M226 981 L108 1030 L84 973 L226 913 L371 975 L346 1033 L226 981 L226 981 Z " />
<glyph glyph-name="ccaron" unicode="&#x10d;" horiz-adv-x="352" d="M191 520 C215 520 238 506 253 482 L306 518 C277 559 236 583 191 583 C110 583 44 506 44 410 L44 172 C44 77 110 0 191 0 C235 0 276 23 305 62 L253 98 C236 76 215 62 191 62 C146 62 108 113 108 172 L108 410 C108 470 146 520 191 520 L191 520 Z M185 757 L67 806 L43 749 L185 689 L330 751 L305 809 L185 757 L185 757 Z " />
<glyph glyph-name="Dcaron" unicode="&#x10e;" horiz-adv-x="422" d="M211 811 L46 811 L46 0 L214 0 C300 0 371 74 371 166 L371 648 C371 738 299 811 211 811 L211 811 Z M307 166 C307 109 265 64 214 64 L109 64 L109 749 L211 749 C264 749 307 703 307 648 L307 166 L307 166 Z M219 981 L101 1030 L77 973 L219 913 L364 975 L339 1033 L219 981 L219 981 Z " />
<glyph glyph-name="dcaron" unicode="&#x10f;" horiz-adv-x="520" d="M282 551 C257 571 227 583 195 583 C114 583 48 506 48 413 L48 170 C48 77 114 0 195 0 C227 0 257 12 282 32 L282 0 L345 0 L345 811 L282 811 L282 551 L282 551 Z M279 170 C279 113 240 65 195 65 C150 65 112 113 112 170 L112 413 C112 470 150 518 195 518 C240 518 279 470 279 413 L279 170 L279 170 Z M428 730 L428 709 C480 709 479 754 479 754 L479 809 L420 809 L420 754 L446 754 L446 754 C446 728 428 730 428 730 L428 730 Z " />
<glyph glyph-name="Dcroat" unicode="&#x110;" horiz-adv-x="466" d="M230 808 L128 808 L65 808 L65 433 L20 433 L20 371 L65 371 L65 0 L76 0 L128 0 L233 0 C319 0 390 74 390 166 L390 644 C390 734 318 808 230 808 L230 808 Z M326 166 C326 109 284 64 233 64 L128 64 L128 371 L265 371 L265 433 L128 433 L128 745 L230 745 C283 745 326 700 326 644 L326 166 Z " />
<glyph glyph-name="dcroat" unicode="&#x111;" horiz-adv-x="421" d="M282 551 C257 571 227 583 195 583 C114 583 48 506 48 413 L48 170 C48 77 114 0 195 0 C227 0 257 12 282 32 L282 0 L345 0 L345 811 L282 811 L282 551 L282 551 Z M279 170 C279 113 240 65 195 65 C150 65 112 113 112 170 L112 413 C112 470 150 518 195 518 C240 518 279 470 279 413 L279 170 L279 170 Z M197 638 L380 638 L380 704 L197 704 L197 638 L197 638 Z " />
<glyph glyph-name="Emacron" unicode="&#x112;" horiz-adv-x="359" d="M34 0 L291 0 L291 62 L97 62 L97 338 L228 338 L228 401 L97 401 L97 748 L291 748 L291 811 L34 811 L34 0 L34 0 Z M165 926 L47 975 L23 918 L165 858 L310 920 L285 978 L165 926 L165 926 Z " />
<glyph glyph-name="emacron" unicode="&#x113;" horiz-adv-x="391" d="M190 583 C109 583 43 504 43 408 L43 175 C43 79 109 0 190 0 C271 0 337 79 337 175 L274 175 C274 115 235 65 190 65 C145 65 107 115 107 175 L107 290 L337 290 L337 408 C337 504 271 583 190 583 L190 583 Z M274 354 L107 354 L107 408 C107 468 145 518 190 518 C235 518 274 468 274 408 L274 354 L274 354 Z M190 757 L72 806 L48 749 L190 689 L335 751 L310 809 L190 757 L190 757 Z " />
<glyph glyph-name="Edotaccent" unicode="&#x116;" horiz-adv-x="359" d="M34 0 L291 0 L291 62 L97 62 L97 338 L228 338 L228 401 L97 401 L97 748 L291 748 L291 811 L34 811 L34 0 L34 0 Z M178 963 C197 963 213 979 213 998 C213 1017 197 1033 178 1033 C159 1033 143 1017 143 998 C143 979 159 963 178 963 L178 963 Z " />
<glyph glyph-name="edotaccent" unicode="&#x117;" horiz-adv-x="391" d="M190 583 C109 583 43 504 43 408 L43 175 C43 79 109 0 190 0 C271 0 337 79 337 175 L274 175 C274 115 235 65 190 65 C145 65 107 115 107 175 L107 290 L337 290 L337 408 C337 504 271 583 190 583 L190 583 Z M274 354 L107 354 L107 408 C107 468 145 518 190 518 C235 518 274 468 274 408 L274 354 L274 354 Z M193 739 C212 739 228 755 228 774 C228 793 212 809 193 809 C174 809 158 793 158 774 C158 755 174 739 193 739 L193 739 Z " />
<glyph glyph-name="Eogonek" unicode="&#x118;" horiz-adv-x="359" d="M34 0 L291 0 L291 62 L97 62 L97 338 L228 338 L228 401 L97 401 L97 748 L291 748 L291 811 L34 811 L34 0 L34 0 Z M177 -132 C177 -129 180 -123 186 -115 C199 -99 220 -74 220 -28 L157 -28 C157 -51 149 -62 137 -76 C126 -90 113 -106 113 -132 C113 -182 161 -216 231 -216 L231 -153 C199 -153 177 -142 177 -132 L177 -132 Z " />
<glyph glyph-name="eogonek" unicode="&#x119;" horiz-adv-x="391" d="M170 -82 C170 -79 174 -73 180 -65 C193 -49 214 -24 214 22 L151 22 C151 -1 143 -12 131 -26 C120 -40 107 -56 107 -82 C107 -132 155 -166 224 -166 L224 -103 C193 -103 170 -92 170 -82 L170 -82 Z M190 583 C109 583 43 504 43 408 L43 175 C43 79 109 0 190 0 C271 0 337 79 337 175 L274 175 C274 115 235 65 190 65 C145 65 107 115 107 175 L107 290 L337 290 L337 408 C337 504 271 583 190 583 L190 583 Z M274 354 L107 354 L107 408 C107 468 145 518 190 518 C235 518 274 468 274 408 L274 354 L274 354 Z " />
<glyph glyph-name="Ecaron" unicode="&#x11a;" horiz-adv-x="359" d="M34 0 L291 0 L291 62 L97 62 L97 338 L228 338 L228 401 L97 401 L97 748 L291 748 L291 811 L34 811 L34 0 L34 0 Z M189 981 L71 1030 L47 973 L189 913 L334 975 L309 1033 L189 981 L189 981 Z " />
<glyph glyph-name="ecaron" unicode="&#x11b;" horiz-adv-x="391" d="M190 583 C109 583 43 504 43 408 L43 175 C43 79 109 0 190 0 C271 0 337 79 337 175 L274 175 C274 115 235 65 190 65 C145 65 107 115 107 175 L107 290 L337 290 L337 408 C337 504 271 583 190 583 L190 583 Z M274 354 L107 354 L107 408 C107 468 145 518 190 518 C235 518 274 468 274 408 L274 354 L274 354 Z M203 757 L85 806 L61 749 L203 689 L348 751 L323 809 L203 757 L203 757 Z " />
<glyph glyph-name="Gcircumflex" unicode="&#x11c;" horiz-adv-x="440" d="M183 337 L309 337 L309 172 C309 112 262 64 204 64 L196 64 C138 64 93 112 93 172 L93 640 C93 700 138 749 196 749 L204 749 C232 749 257 737 277 718 C289 704 299 688 304 670 L365 686 C357 715 342 740 322 761 C291 793 249 811 204 811 L196 811 C103 811 29 734 29 640 L29 172 C29 77 103 0 196 0 L204 0 C297 0 371 77 371 172 L371 401 L183 401 L183 337 L183 337 Z M49 906 L90 858 L221 963 L344 854 L384 902 L221 1045 L49 906 Z " />
<glyph glyph-name="gcircumflex" unicode="&#x11d;" horiz-adv-x="402" d="M274 553 C250 572 221 583 190 583 C109 583 43 509 43 418 L43 167 C43 76 109 0 190 0 C221 0 250 12 274 30 L274 -7 C274 -66 235 -115 190 -115 C168 -115 153 -104 142 -95 L99 -140 C125 -164 157 -178 190 -178 C271 -178 337 -101 337 -7 L337 167 L337 418 L337 583 L274 583 L274 553 L274 553 Z M274 167 C274 110 235 64 190 64 C145 64 107 110 107 167 L107 418 C107 473 145 521 190 521 C235 521 274 473 274 418 L274 167 L274 167 Z M30 682 L71 634 L202 739 L325 630 L365 678 L202 821 L30 682 Z " />
<glyph glyph-name="Gbreve" unicode="&#x11e;" horiz-adv-x="440" d="M183 337 L309 337 L309 172 C309 112 262 64 204 64 L196 64 C138 64 93 112 93 172 L93 640 C93 700 138 749 196 749 L204 749 C232 749 257 737 277 718 C289 704 299 688 304 670 L365 686 C357 715 342 740 322 761 C291 793 249 811 204 811 L196 811 C103 811 29 734 29 640 L29 172 C29 77 103 0 196 0 L204 0 C297 0 371 77 371 172 L371 401 L183 401 L183 337 L183 337 Z M220 930 C176 930 138 976 138 1033 L74 1033 C74 940 140 866 220 866 C302 866 368 940 368 1033 L304 1033 C304 976 266 930 220 930 L220 930 Z " />
<glyph glyph-name="gbreve" unicode="&#x11f;" horiz-adv-x="402" d="M274 553 C250 572 221 583 190 583 C109 583 43 509 43 418 L43 167 C43 76 109 0 190 0 C221 0 250 12 274 30 L274 -7 C274 -66 235 -115 190 -115 C168 -115 153 -104 142 -95 L99 -140 C125 -164 157 -178 190 -178 C271 -178 337 -101 337 -7 L337 167 L337 418 L337 583 L274 583 L274 553 L274 553 Z M274 167 C274 110 235 64 190 64 C145 64 107 110 107 167 L107 418 C107 473 145 521 190 521 C235 521 274 473 274 418 L274 167 L274 167 Z M200 706 C156 706 118 752 118 809 L54 809 C54 716 120 642 200 642 C282 642 348 716 348 809 L284 809 C284 752 246 706 200 706 L200 706 Z " />
<glyph glyph-name="Gdotaccent" unicode="&#x120;" horiz-adv-x="440" d="M183 337 L309 337 L309 172 C309 112 262 64 204 64 L196 64 C138 64 93 112 93 172 L93 640 C93 700 138 749 196 749 L204 749 C232 749 257 737 277 718 C289 704 299 688 304 670 L365 686 C357 715 342 740 322 761 C291 793 249 811 204 811 L196 811 C103 811 29 734 29 640 L29 172 C29 77 103 0 196 0 L204 0 C297 0 371 77 371 172 L371 401 L183 401 L183 337 L183 337 Z M219 963 C238 963 254 979 254 998 C254 1017 238 1033 219 1033 C200 1033 184 1017 184 998 C184 979 200 963 219 963 L219 963 Z " />
<glyph glyph-name="gdotaccent" unicode="&#x121;" horiz-adv-x="402" d="M274 553 C250 572 221 583 190 583 C109 583 43 509 43 418 L43 167 C43 76 109 0 190 0 C221 0 250 12 274 30 L274 -7 C274 -66 235 -115 190 -115 C168 -115 153 -104 142 -95 L99 -140 C125 -164 157 -178 190 -178 C271 -178 337 -101 337 -7 L337 167 L337 418 L337 583 L274 583 L274 553 L274 553 Z M274 167 C274 110 235 64 190 64 C145 64 107 110 107 167 L107 418 C107 473 145 521 190 521 C235 521 274 473 274 418 L274 167 L274 167 Z M199 739 C218 739 234 755 234 774 C234 793 218 809 199 809 C180 809 164 793 164 774 C164 755 180 739 199 739 L199 739 Z " />
<glyph glyph-name="Gcommaaccent" unicode="&#x122;" horiz-adv-x="440" d="M183 337 L309 337 L309 172 C309 112 262 64 204 64 L196 64 C138 64 93 112 93 172 L93 640 C93 700 138 749 196 749 L204 749 C232 749 257 737 277 718 C289 704 299 688 304 670 L365 686 C357 715 342 740 322 761 C291 793 249 811 204 811 L196 811 C103 811 29 734 29 640 L29 172 C29 77 103 0 196 0 L204 0 C297 0 371 77 371 172 L371 401 L183 401 L183 337 L183 337 Z M233 -43 L174 -43 L174 -98 L200 -98 L200 -98 C200 -123 182 -121 182 -121 L182 -143 C234 -143 233 -98 233 -98 L233 -43 L233 -43 Z " />
<glyph glyph-name="gcommaaccent" unicode="&#x123;" horiz-adv-x="390" d="M274 553 C250 572 221 583 190 583 C109 583 43 509 43 418 L43 167 C43 76 109 0 190 0 C221 0 250 12 274 30 L274 -7 C274 -66 235 -115 190 -115 C168 -115 153 -104 142 -95 L99 -140 C125 -164 157 -178 190 -178 C271 -178 337 -101 337 -7 L337 167 L337 418 L337 583 L274 583 L274 553 L274 553 Z M274 167 C274 110 235 64 190 64 C145 64 107 110 107 167 L107 418 C107 473 145 521 190 521 C235 521 274 473 274 418 L274 167 L274 167 Z M194 750 L194 695 L253 695 L253 750 L226 750 L226 750 C226 776 244 774 244 774 L244 795 C193 795 194 750 194 750 L194 750 Z " />
<glyph glyph-name="Hcircumflex" unicode="&#x124;" horiz-adv-x="430" d="M312 401 L109 401 L109 811 L46 811 L46 0 L109 0 L109 338 L312 338 L312 0 L376 0 L376 811 L312 811 L312 401 L312 401 Z M44 906 L85 858 L216 963 L339 854 L379 902 L216 1045 L44 906 Z " />
<glyph glyph-name="hcircumflex" unicode="&#x125;" horiz-adv-x="391" d="M193 583 C162 583 133 572 110 553 L110 811 L46 811 L46 0 L110 0 L110 416 C110 473 148 521 193 521 C238 521 277 473 277 416 L277 0 L340 0 L340 416 C340 509 274 583 193 583 L193 583 Z M25 892 L66 844 L197 949 L320 840 L360 888 L197 1031 L25 892 Z " />
<glyph glyph-name="Hbar" unicode="&#x126;" horiz-adv-x="578" d="M40 509 L529 509 L529 580 L40 580 L40 509 Z M387 401 L184 401 L184 811 L121 811 L121 0 L184 0 L184 338 L387 338 L387 0 L451 0 L451 811 L387 811 L387 401 L387 401 Z " />
<glyph glyph-name="hbar" unicode="&#x127;" horiz-adv-x="391" d="M193 583 C162 583 133 572 110 553 L110 811 L46 811 L46 0 L110 0 L110 416 C110 473 148 521 193 521 C238 521 277 473 277 416 L277 0 L340 0 L340 416 C340 509 274 583 193 583 L193 583 Z M-16 648 L289 648 L289 710 L-16 710 L-16 648 L-16 648 Z " />
<glyph glyph-name="Itilde" unicode="&#x128;" horiz-adv-x="169" d="M43 0 L107 0 L107 811 L43 811 L43 0 L43 0 Z M60 909 C109 878 178 836 287 945 L242 990 C168 915 139 934 94 962 C68 978 38 997 1 997 C-35 997 -78 980 -131 927 L-85 883 C-52 916 -23 933 1 933 C1 933 1 933 1 933 C20 933 40 922 60 909 L60 909 Z " />
<glyph glyph-name="itilde" unicode="&#x129;" horiz-adv-x="220" d="M62 0 L126 0 L126 583 L62 583 L62 0 L62 0 Z M58 728 C107 697 176 655 285 764 L240 809 C166 734 137 753 92 781 C66 797 36 816 -1 816 C-37 816 -80 799 -133 746 L-87 702 C-54 735 -25 752 -1 752 C-1 752 -1 752 -1 752 C18 752 38 741 58 728 L58 728 Z " />
<glyph glyph-name="imacron" unicode="&#x12b;" horiz-adv-x="220" d="M62 0 L126 0 L126 583 L62 583 L62 0 L62 0 Z M70 757 L-48 806 L-72 749 L70 689 L215 751 L190 809 L70 757 L70 757 Z " />
<glyph glyph-name="Iogonek" unicode="&#x12e;" horiz-adv-x="169" d="M43 0 L107 0 L107 811 L43 811 L43 0 L43 0 Z M69 -132 C69 -129 72 -123 78 -115 C91 -99 112 -74 112 -28 L49 -28 C49 -51 41 -62 29 -76 C18 -90 5 -106 5 -132 C5 -182 53 -216 123 -216 L123 -153 C91 -153 69 -142 69 -132 L69 -132 Z " />
<glyph glyph-name="iogonek" unicode="&#x12f;" horiz-adv-x="163" d="M62 0 L126 0 L126 583 L62 583 L62 0 L62 0 Z M62 653 L126 653 L126 720 L62 720 L62 653 L62 653 Z M69 -132 C69 -129 72 -123 78 -115 C91 -99 112 -74 112 -28 L49 -28 C49 -51 41 -62 29 -76 C18 -90 5 -106 5 -132 C5 -182 53 -216 123 -216 L123 -153 C91 -153 69 -142 69 -132 L69 -132 Z " />
<glyph glyph-name="Idotaccent" unicode="&#x130;" horiz-adv-x="169" d="M43 0 L107 0 L107 811 L43 811 L43 0 L43 0 Z M83 963 C102 963 118 979 118 998 C118 1017 102 1033 83 1033 C64 1033 48 1017 48 998 C48 979 64 963 83 963 L83 963 Z " />
<glyph glyph-name="dotlessi" unicode="&#x131;" horiz-adv-x="190" d="M62 0 L126 0 L126 583 L62 583 L62 0 L62 0 Z " />
<glyph glyph-name="Jcircumflex" unicode="&#x134;" horiz-adv-x="431" d="M305 173 C305 112 258 62 201 62 C143 62 97 112 97 173 L97 372 L34 372 L34 173 C34 77 108 0 201 0 C293 0 367 77 367 173 L367 811 L305 811 L305 173 L305 173 Z M185 906 L226 858 L357 963 L480 854 L520 902 L357 1045 L185 906 Z " />
<glyph glyph-name="jcircumflex" unicode="&#x135;" horiz-adv-x="174" d="M59 653 L122 653 L122 720 L59 720 L59 653 L59 653 Z M59 2 C59 -58 20 -107 -25 -107 C-47 -107 -64 -96 -73 -86 L-116 -140 C-90 -164 -58 -170 -25 -170 C56 -170 122 -92 122 2 L122 583 L59 583 L59 2 L59 2 Z M-84 682 L-43 634 L88 739 L211 630 L251 678 L88 821 L-84 682 Z " />
<glyph glyph-name="Kcommaaccent" unicode="&#x136;" horiz-adv-x="458" d="M397 811 L322 811 L105 473 L105 811 L41 811 L41 0 L105 0 L105 359 L160 451 L324 0 L400 0 L204 514 L397 811 Z M221 -43 L162 -43 L162 -98 L188 -98 L188 -98 C188 -123 170 -121 170 -121 L170 -143 C222 -143 221 -98 221 -98 L221 -43 L221 -43 Z " />
<glyph glyph-name="kcommaaccent" unicode="&#x137;" horiz-adv-x="440" d="M295 583 L103 347 L103 811 L40 811 L40 0 L103 0 L103 242 L172 330 L293 0 L365 0 L220 385 L372 583 L295 583 L295 583 Z M221 -43 L162 -43 L162 -98 L188 -98 L188 -98 C188 -123 170 -121 170 -121 L170 -143 C222 -143 221 -98 221 -98 L221 -43 L221 -43 Z " />
<glyph glyph-name="kgreenlandic" unicode="&#x138;" horiz-adv-x="415" d="M320 583 L128 347 L128 583 L65 583 L65 0 L128 0 L128 242 L197 330 L318 1 L390 1 L245 385 L397 583 L320 583 Z " />
<glyph glyph-name="Lacute" unicode="&#x139;" horiz-adv-x="359" d="M107 811 L43 811 L43 0 L300 0 L300 64 L107 64 L107 811 L107 811 Z M66 908 L108 908 L134 997 L82 997 L66 908 L66 908 Z " />
<glyph glyph-name="lacute" unicode="&#x13a;" horiz-adv-x="163" d="M62 0 L126 0 L126 811 L62 811 L62 0 L62 0 Z M56 869 L98 869 L124 958 L72 958 L56 869 L56 869 Z " />
<glyph glyph-name="Lcommaaccent" unicode="&#x13b;" horiz-adv-x="359" d="M229 -36 L140 -36 L140 -118 L180 -118 L180 -118 C180 -156 154 -154 154 -154 L154 -186 C230 -186 229 -118 229 -118 L229 -36 Z M107 811 L43 811 L43 0 L300 0 L300 64 L107 64 L107 811 L107 811 Z " />
<glyph glyph-name="lcommaaccent" unicode="&#x13c;" horiz-adv-x="163" d="M62 0 L126 0 L126 811 L62 811 L62 0 L62 0 Z M123 -43 L64 -43 L64 -98 L90 -98 L90 -98 C90 -123 72 -121 72 -121 L72 -143 C124 -143 123 -98 123 -98 L123 -43 L123 -43 Z " />
<glyph glyph-name="Lcaron" unicode="&#x13d;" horiz-adv-x="359" d="M107 811 L43 811 L43 0 L300 0 L300 64 L107 64 L107 811 L107 811 Z M62 899 L62 878 C114 878 113 923 113 923 L113 978 L54 978 L54 923 L80 923 L80 923 C80 897 62 899 62 899 L62 899 Z " />
<glyph glyph-name="lcaron" unicode="&#x13e;" horiz-adv-x="288" d="M62 0 L126 0 L126 811 L62 811 L62 0 L62 0 Z M195 730 L195 709 C247 709 246 754 246 754 L246 809 L187 809 L187 754 L213 754 L213 754 C213 728 195 730 195 730 L195 730 Z " />
<glyph glyph-name="Lslash" unicode="&#x141;" horiz-adv-x="391" d="M126 65 L126 371 L253 371 L253 433 L126 433 L126 809 L62 809 L62 433 L32 433 L32 371 L62 371 L62 1 L319 1 L319 65 L126 65 L126 65 Z " />
<glyph glyph-name="lslash" unicode="&#x142;" horiz-adv-x="290" d="M114 0 L178 0 L178 811 L114 811 L114 0 L114 0 Z M23 363 L253 363 L253 431 L23 431 L23 363 Z " />
<glyph glyph-name="Nacute" unicode="&#x143;" horiz-adv-x="454" d="M341 811 L341 168 L115 811 L41 811 L41 0 L105 0 L105 649 L333 0 L403 0 L403 811 L341 811 L341 811 Z M192 908 L234 908 L260 997 L208 997 L192 908 L192 908 Z " />
<glyph glyph-name="nacute" unicode="&#x144;" horiz-adv-x="396" d="M190 583 C159 583 130 572 107 553 L107 583 L43 583 L43 416 L43 0 L107 0 L107 416 C107 473 145 521 190 521 C235 521 274 473 274 416 L274 0 L337 0 L337 416 C337 509 271 583 190 583 L190 583 Z M162 684 L204 684 L230 773 L178 773 L162 684 L162 684 Z " />
<glyph glyph-name="Ncommaaccent" unicode="&#x145;" horiz-adv-x="454" d="M341 811 L341 168 L115 811 L41 811 L41 0 L105 0 L105 649 L333 0 L403 0 L403 811 L341 811 L341 811 Z M257 -43 L198 -43 L198 -98 L224 -98 L224 -98 C224 -123 206 -121 206 -121 L206 -143 C258 -143 257 -98 257 -98 L257 -43 L257 -43 Z " />
<glyph glyph-name="ncommaaccent" unicode="&#x146;" horiz-adv-x="396" d="M190 583 C159 583 130 572 107 553 L107 583 L43 583 L43 416 L43 0 L107 0 L107 416 C107 473 145 521 190 521 C235 521 274 473 274 416 L274 0 L337 0 L337 416 C337 509 271 583 190 583 L190 583 Z M209 -43 L150 -43 L150 -98 L176 -98 L176 -98 C176 -123 158 -121 158 -121 L158 -143 C210 -143 209 -98 209 -98 L209 -43 L209 -43 Z " />
<glyph glyph-name="Ncaron" unicode="&#x147;" horiz-adv-x="454" d="M341 811 L341 168 L115 811 L41 811 L41 0 L105 0 L105 649 L333 0 L403 0 L403 811 L341 811 L341 811 Z M236 981 L118 1030 L94 973 L236 913 L381 975 L356 1033 L236 981 L236 981 Z " />
<glyph glyph-name="ncaron" unicode="&#x148;" horiz-adv-x="396" d="M190 583 C159 583 130 572 107 553 L107 583 L43 583 L43 416 L43 0 L107 0 L107 416 C107 473 145 521 190 521 C235 521 274 473 274 416 L274 0 L337 0 L337 416 C337 509 271 583 190 583 L190 583 Z M207 757 L89 806 L65 749 L207 689 L352 751 L327 809 L207 757 L207 757 Z " />
<glyph glyph-name="Eng" unicode="&#x14a;" horiz-adv-x="454" d="M341 -138 C341 -199 294 -248 236 -248 C179 -248 133 -199 133 -138 L133 -72 L70 -72 L70 -138 C70 -234 144 -311 236 -311 C329 -311 403 -234 403 -138 L403 497 L341 497 L341 -138 Z M341 811 L341 168 L115 811 L41 811 L41 0 L105 0 L105 649 L333 0 L403 0 L403 811 L341 811 L341 811 Z " />
<glyph glyph-name="eng" unicode="&#x14b;" horiz-adv-x="396" d="M209 583 C178 583 149 572 126 553 L126 583 L62 583 L62 416 L62 36 L62 1 L126 1 L126 36 L126 416 C126 473 164 521 209 521 C254 521 293 473 293 416 L293 283 L293 14 C293 -46 254 -95 209 -95 C187 -95 170 -84 161 -74 L118 -128 C144 -152 176 -158 209 -158 C287 -158 350 -88 356 1 L356 1 L356 14 L356 283 L356 416 C356 509 290 583 209 583 L209 583 Z " />
<glyph glyph-name="Omacron" unicode="&#x14c;" horiz-adv-x="438" d="M209 811 L201 811 C108 811 34 737 34 644 L34 167 C34 74 108 0 201 0 L209 0 C301 0 376 74 376 167 L376 644 C376 737 301 811 209 811 L209 811 Z M313 167 C313 109 267 62 209 62 L201 62 C143 62 97 109 97 167 L97 644 C97 702 143 748 201 748 L209 748 C267 748 313 702 313 644 L313 167 L313 167 Z M202 937 L84 986 L60 929 L202 869 L347 931 L322 989 L202 937 L202 937 Z " />
<glyph glyph-name="omacron" unicode="&#x14d;" horiz-adv-x="391" d="M193 583 C112 583 46 509 46 418 L46 166 C46 74 112 0 193 0 C274 0 340 74 340 166 L340 418 C340 509 274 583 193 583 L193 583 Z M277 166 C277 110 238 62 193 62 C148 62 110 110 110 166 L110 418 C110 473 148 521 193 521 C238 521 277 473 277 418 L277 166 L277 166 Z M202 745 L84 794 L60 737 L202 677 L347 739 L322 797 L202 745 L202 745 Z " />
<glyph glyph-name="Ohungarumlaut" unicode="&#x150;" horiz-adv-x="438" d="M209 811 L201 811 C108 811 34 737 34 644 L34 167 C34 74 108 0 201 0 L209 0 C301 0 376 74 376 167 L376 644 C376 737 301 811 209 811 L209 811 Z M313 167 C313 109 267 62 209 62 L201 62 C143 62 97 109 97 167 L97 644 C97 702 143 748 201 748 L209 748 C267 748 313 702 313 644 L313 167 L313 167 Z M131 944 L173 944 L199 1033 L147 1033 L131 944 L131 944 Z M203 944 L244 944 L271 1033 L217 1033 L203 944 L203 944 Z " />
<glyph glyph-name="ohungarumlaut" unicode="&#x151;" horiz-adv-x="391" d="M193 583 C112 583 46 509 46 418 L46 166 C46 74 112 0 193 0 C274 0 340 74 340 166 L340 418 C340 509 274 583 193 583 L193 583 Z M277 166 C277 110 238 62 193 62 C148 62 110 110 110 166 L110 418 C110 473 148 521 193 521 C238 521 277 473 277 418 L277 166 L277 166 Z M130 720 L172 720 L198 809 L146 809 L130 720 L130 720 Z M202 720 L243 720 L270 809 L216 809 L202 720 L202 720 Z " />
<glyph glyph-name="OE" unicode="&#x152;" horiz-adv-x="632" d="M586 745 L586 809 L329 809 L329 773 C300 794 265 808 227 808 L218 808 C126 808 52 733 52 641 L52 167 C52 74 126 0 218 0 L227 0 C265 0 300 13 329 35 L329 0 L586 0 L586 62 L392 62 L392 146 C394 154 394 160 394 167 L394 338 L523 338 L523 401 L394 401 L394 641 C394 648 394 654 392 661 L392 745 L586 745 L586 745 Z M227 62 L218 62 C161 62 115 109 115 167 L115 641 C115 698 161 744 218 744 L227 744 C277 744 318 709 329 662 L329 144 C318 97 277 62 227 62 L227 62 Z " />
<glyph glyph-name="oe" unicode="&#x153;" horiz-adv-x="626" d="M343 290 L572 290 L572 408 C572 504 506 583 425 583 C379 583 338 558 312 518 C284 557 242 582 196 582 C115 582 49 508 49 416 L49 167 C49 76 115 1 196 1 C242 1 284 26 312 65 C338 25 379 0 425 0 C506 0 572 79 572 175 L509 175 C509 115 470 65 425 65 C384 65 349 106 343 158 C343 161 343 164 343 167 L343 290 L343 290 Z M425 518 C470 518 509 468 509 408 L509 354 L343 354 L343 416 C343 419 343 422 343 425 C349 478 384 518 425 518 L425 518 Z M196 64 C151 64 113 112 113 167 L113 416 C113 472 151 520 196 520 C239 520 275 478 280 426 C278 420 278 414 278 408 L278 175 C278 169 278 163 280 157 C275 106 239 64 196 64 L196 64 Z " />
<glyph glyph-name="Racute" unicode="&#x154;" horiz-adv-x="425" d="M292 330 C331 360 358 409 358 466 L358 647 C358 738 288 811 202 811 L34 811 L34 0 L97 0 L97 300 L193 300 C250 300 297 253 297 197 L297 0 L360 0 L360 197 C360 252 333 300 292 330 L292 330 Z M202 364 L97 364 L97 749 L202 749 C253 749 294 703 294 647 L294 466 C294 409 253 364 202 364 L202 364 Z M176 908 L218 908 L244 997 L192 997 L176 908 L176 908 Z " />
<glyph glyph-name="racute" unicode="&#x155;" horiz-adv-x="349" d="M192 583 C161 583 132 571 109 552 L109 583 L46 583 L46 410 L46 185 L46 0 L109 0 L109 185 L109 410 C109 470 148 520 192 520 C216 520 239 506 255 482 L307 518 C279 559 238 583 192 583 L192 583 Z M139 684 L181 684 L207 773 L155 773 L139 684 L139 684 Z " />
<glyph glyph-name="Rcommaaccent" unicode="&#x156;" horiz-adv-x="425" d="M292 330 C331 360 358 409 358 466 L358 647 C358 738 288 811 202 811 L34 811 L34 0 L97 0 L97 300 L193 300 C250 300 297 253 297 197 L297 0 L360 0 L360 197 C360 252 333 300 292 330 L292 330 Z M202 364 L97 364 L97 749 L202 749 C253 749 294 703 294 647 L294 466 C294 409 253 364 202 364 L202 364 Z M233 -43 L174 -43 L174 -98 L200 -98 L200 -98 C200 -123 182 -121 182 -121 L182 -143 C234 -143 233 -98 233 -98 L233 -43 L233 -43 Z " />
<glyph glyph-name="rcommaaccent" unicode="&#x157;" horiz-adv-x="349" d="M192 583 C161 583 132 571 109 552 L109 583 L46 583 L46 410 L46 185 L46 0 L109 0 L109 185 L109 410 C109 470 148 520 192 520 C216 520 239 506 255 482 L307 518 C279 559 238 583 192 583 L192 583 Z M105 -43 L46 -43 L46 -98 L72 -98 L72 -98 C72 -123 54 -121 54 -121 L54 -143 C106 -143 105 -98 105 -98 L105 -43 L105 -43 Z " />
<glyph glyph-name="Rcaron" unicode="&#x158;" horiz-adv-x="425" d="M292 330 C331 360 358 409 358 466 L358 647 C358 738 288 811 202 811 L34 811 L34 0 L97 0 L97 300 L193 300 C250 300 297 253 297 197 L297 0 L360 0 L360 197 C360 252 333 300 292 330 L292 330 Z M202 364 L97 364 L97 749 L202 749 C253 749 294 703 294 647 L294 466 C294 409 253 364 202 364 L202 364 Z M220 981 L102 1030 L78 973 L220 913 L365 975 L340 1033 L220 981 L220 981 Z " />
<glyph glyph-name="rcaron" unicode="&#x159;" horiz-adv-x="349" d="M192 583 C161 583 132 571 109 552 L109 583 L46 583 L46 410 L46 185 L46 0 L109 0 L109 185 L109 410 C109 470 148 520 192 520 C216 520 239 506 255 482 L307 518 C279 559 238 583 192 583 L192 583 Z M183 757 L65 806 L41 749 L183 689 L328 751 L303 809 L183 757 L183 757 Z " />
<glyph glyph-name="Sacute" unicode="&#x15a;" horiz-adv-x="449" d="M223 432 C157 493 96 554 97 648 C97 704 144 749 203 749 C261 749 307 700 307 638 L371 638 C371 734 295 811 203 811 C109 811 35 740 34 648 C33 527 111 450 180 386 C247 324 310 264 307 168 C306 77 241 64 203 64 C145 64 99 113 99 174 L35 174 C35 78 111 0 203 0 C250 0 291 14 319 41 C352 71 370 114 371 166 C373 292 294 367 223 432 L223 432 Z M190 908 L232 908 L258 997 L206 997 L190 908 L190 908 Z " />
<glyph glyph-name="sacute" unicode="&#x15b;" horiz-adv-x="368" d="M200 320 C150 362 107 400 108 458 C108 492 140 518 181 518 C209 518 234 504 247 481 L302 512 C278 556 233 583 181 583 C106 583 46 528 44 460 C43 370 106 317 161 270 C211 227 256 188 254 127 C253 76 214 65 181 65 C151 65 125 82 114 107 L55 82 C77 32 126 0 181 0 C262 0 316 49 317 125 C319 218 257 272 200 320 L200 320 Z M149 684 L191 684 L217 773 L165 773 L149 684 L149 684 Z " />
<glyph glyph-name="Scircumflex" unicode="&#x15c;" horiz-adv-x="449" d="M223 432 C157 493 96 554 97 648 C97 704 144 749 203 749 C261 749 307 700 307 638 L371 638 C371 734 295 811 203 811 C109 811 35 740 34 648 C33 527 111 450 180 386 C247 324 310 264 307 168 C306 77 241 64 203 64 C145 64 99 113 99 174 L35 174 C35 78 111 0 203 0 C250 0 291 14 319 41 C352 71 370 114 371 166 C373 292 294 367 223 432 L223 432 Z M54 906 L95 858 L226 963 L349 854 L389 902 L226 1045 L54 906 Z " />
<glyph glyph-name="scircumflex" unicode="&#x15d;" horiz-adv-x="368" d="M200 320 C150 362 107 400 108 458 C108 492 140 518 181 518 C209 518 234 504 247 481 L302 512 C278 556 233 583 181 583 C106 583 46 528 44 460 C43 370 106 317 161 270 C211 227 256 188 254 127 C253 76 214 65 181 65 C151 65 125 82 114 107 L55 82 C77 32 126 0 181 0 C262 0 316 49 317 125 C319 218 257 272 200 320 L200 320 Z M13 682 L54 634 L185 739 L308 630 L348 678 L185 821 L13 682 Z " />
<glyph glyph-name="Scedilla" unicode="&#x15e;" horiz-adv-x="449" d="M223 432 C157 493 96 554 97 648 C97 704 144 749 203 749 C261 749 307 700 307 638 L371 638 C371 734 295 811 203 811 C109 811 35 740 34 648 C33 527 111 450 180 386 C247 324 310 264 307 168 C306 77 241 64 203 64 C145 64 99 113 99 174 L35 174 C35 78 111 0 203 0 C250 0 291 14 319 41 C352 71 370 114 371 166 C373 292 294 367 223 432 L223 432 Z M245 22 L183 22 C183 -24 203 -49 216 -65 C222 -73 227 -79 227 -82 C227 -92 203 -103 172 -103 L172 -166 C242 -166 290 -132 290 -82 C290 -56 276 -40 266 -26 C255 -12 245 -1 245 22 L245 22 Z " />
<glyph glyph-name="scedilla" unicode="&#x15f;" horiz-adv-x="368" d="M200 320 C150 362 107 400 108 458 C108 492 140 518 181 518 C209 518 234 504 247 481 L302 512 C278 556 233 583 181 583 C106 583 46 528 44 460 C43 370 106 317 161 270 C211 227 256 188 254 127 C253 76 214 65 181 65 C151 65 125 82 114 107 L55 82 C77 32 126 0 181 0 C262 0 316 49 317 125 C319 218 257 272 200 320 L200 320 Z M204 22 L142 22 C142 -24 162 -49 175 -65 C181 -73 186 -79 186 -82 C186 -92 162 -103 131 -103 L131 -166 C201 -166 249 -132 249 -82 C249 -56 235 -40 225 -26 C214 -12 204 -1 204 22 L204 22 Z " />
<glyph glyph-name="Scaron" unicode="&#x160;" horiz-adv-x="449" d="M223 432 C157 493 96 554 97 648 C97 704 144 749 203 749 C261 749 307 700 307 638 L371 638 C371 734 295 811 203 811 C109 811 35 740 34 648 C33 527 111 450 180 386 C247 324 310 264 307 168 C306 77 241 64 203 64 C145 64 99 113 99 174 L35 174 C35 78 111 0 203 0 C250 0 291 14 319 41 C352 71 370 114 371 166 C373 292 294 367 223 432 L223 432 Z M233 981 L115 1030 L91 973 L233 913 L378 975 L353 1033 L233 981 L233 981 Z " />
<glyph glyph-name="scaron" unicode="&#x161;" horiz-adv-x="368" d="M200 320 C150 362 107 400 108 458 C108 492 140 518 181 518 C209 518 234 504 247 481 L302 512 C278 556 233 583 181 583 C106 583 46 528 44 460 C43 370 106 317 161 270 C211 227 256 188 254 127 C253 76 214 65 181 65 C151 65 125 82 114 107 L55 82 C77 32 126 0 181 0 C262 0 316 49 317 125 C319 218 257 272 200 320 L200 320 Z M194 757 L76 806 L52 749 L194 689 L339 751 L314 809 L194 757 L194 757 Z " />
<glyph glyph-name="Tcommaaccent" unicode="&#x162;" horiz-adv-x="406" d="M29 748 L150 748 L150 0 L213 0 L213 748 L333 748 L333 811 L29 811 L29 748 L29 748 Z M209 -43 L150 -43 L150 -98 L176 -98 L176 -98 C176 -123 158 -121 158 -121 L158 -143 C210 -143 209 -98 209 -98 L209 -43 L209 -43 Z " />
<glyph glyph-name="tcommaaccent" unicode="&#x163;" horiz-adv-x="367" d="M229 64 C201 64 169 110 169 173 L169 521 L280 521 L280 583 L169 583 L169 716 L106 716 L106 583 L49 583 L49 521 L106 521 L106 173 C106 77 161 0 229 0 C265 0 300 22 323 59 L269 92 C258 74 244 64 229 64 L229 64 Z " />
<glyph glyph-name="Tcaron" unicode="&#x164;" horiz-adv-x="406" d="M29 748 L150 748 L150 0 L213 0 L213 748 L333 748 L333 811 L29 811 L29 748 L29 748 Z M210 981 L92 1030 L68 973 L210 913 L355 975 L330 1033 L210 981 L210 981 Z " />
<glyph glyph-name="tcaron" unicode="&#x165;" horiz-adv-x="490" d="M229 64 C201 64 169 110 169 173 L169 521 L280 521 L280 583 L169 583 L169 716 L106 716 L106 583 L49 583 L49 521 L106 521 L106 173 C106 77 161 0 229 0 C265 0 300 22 323 59 L269 92 C258 74 244 64 229 64 L229 64 Z M399 730 L399 709 C451 709 450 754 450 754 L450 809 L391 809 L391 754 L417 754 L417 754 C417 728 399 730 399 730 L399 730 Z " />
<glyph glyph-name="Tbar" unicode="&#x166;" horiz-adv-x="371" d="M25 542 L331 542 L331 613 L25 613 L25 542 Z M29 748 L150 748 L150 0 L213 0 L213 748 L333 748 L333 811 L29 811 L29 748 L29 748 Z " />
<glyph glyph-name="tbar" unicode="&#x167;" horiz-adv-x="367" d="M229 64 C201 64 169 110 169 173 L169 521 L280 521 L280 583 L169 583 L169 716 L106 716 L106 583 L49 583 L49 521 L106 521 L106 173 C106 77 161 0 229 0 C265 0 300 22 323 59 L269 92 C258 74 244 64 229 64 L229 64 Z M32 353 L298 353 L298 413 L32 413 L32 353 L32 353 Z " />
<glyph glyph-name="Utilde" unicode="&#x168;" horiz-adv-x="446" d="M313 167 C313 109 267 64 209 64 L201 64 C143 64 97 109 97 167 L97 811 L34 811 L34 167 C34 74 108 0 201 0 L209 0 C301 0 376 74 376 167 L376 811 L313 811 L313 167 L313 167 Z M199 909 C248 878 317 836 426 945 L381 990 C307 915 278 934 233 962 C207 978 177 997 140 997 C104 997 61 980 8 927 L54 883 C87 916 116 933 140 933 C140 933 140 933 140 933 C159 933 179 922 199 909 L199 909 Z " />
<glyph glyph-name="utilde" unicode="&#x169;" horiz-adv-x="412" d="M293 551 L293 167 C293 110 254 64 209 64 C164 64 126 110 126 167 L126 583 L62 583 L62 167 C62 76 128 0 209 0 C240 0 269 12 293 30 L293 0 L356 0 L356 167 L356 551 L356 583 L293 583 L293 551 L293 551 Z M182 685 C231 654 300 612 409 721 L364 766 C290 691 261 710 216 738 C190 754 160 773 123 773 C87 773 44 756 -9 703 L37 659 C70 692 99 709 123 709 C123 709 123 709 123 709 C142 709 162 698 182 685 L182 685 Z " />
<glyph glyph-name="Umacron" unicode="&#x16a;" horiz-adv-x="446" d="M313 167 C313 109 267 64 209 64 L201 64 C143 64 97 109 97 167 L97 811 L34 811 L34 167 C34 74 108 0 201 0 L209 0 C301 0 376 74 376 167 L376 811 L313 811 L313 167 L313 167 Z M214 929 L96 978 L72 921 L214 861 L359 923 L334 981 L214 929 L214 929 Z " />
<glyph glyph-name="umacron" unicode="&#x16b;" horiz-adv-x="391" d="M293 551 L293 167 C293 110 254 64 209 64 C164 64 126 110 126 167 L126 583 L62 583 L62 167 C62 76 128 0 209 0 C240 0 269 12 293 30 L293 0 L356 0 L356 167 L356 551 L356 583 L293 583 L293 551 L293 551 Z M214 721 L96 770 L72 713 L214 653 L359 715 L334 773 L214 721 L214 721 Z " />
<glyph glyph-name="Ubreve" unicode="&#x16c;" horiz-adv-x="446" d="M313 167 C313 109 267 64 209 64 L201 64 C143 64 97 109 97 167 L97 811 L34 811 L34 167 C34 74 108 0 201 0 L209 0 C301 0 376 74 376 167 L376 811 L313 811 L313 167 L313 167 Z M222 930 C178 930 140 976 140 1033 L76 1033 C76 940 142 866 222 866 C304 866 370 940 370 1033 L306 1033 C306 976 268 930 222 930 L222 930 Z " />
<glyph glyph-name="ubreve" unicode="&#x16d;" horiz-adv-x="412" d="M293 551 L293 167 C293 110 254 64 209 64 C164 64 126 110 126 167 L126 583 L62 583 L62 167 C62 76 128 0 209 0 C240 0 269 12 293 30 L293 0 L356 0 L356 167 L356 551 L356 583 L293 583 L293 551 L293 551 Z M205 706 C161 706 123 752 123 809 L59 809 C59 716 125 642 205 642 C287 642 353 716 353 809 L289 809 C289 752 251 706 205 706 L205 706 Z " />
<glyph glyph-name="Uring" unicode="&#x16e;" horiz-adv-x="446" d="M313 167 C313 109 267 64 209 64 L201 64 C143 64 97 109 97 167 L97 811 L34 811 L34 167 C34 74 108 0 201 0 L209 0 C301 0 376 74 376 167 L376 811 L313 811 L313 167 L313 167 Z M315 944 C315 993 276 1033 227 1033 C179 1033 139 993 139 944 C139 896 179 856 227 856 C276 856 315 896 315 944 L315 944 L315 944 Z M227 908 C207 908 193 925 193 944 C193 964 207 980 227 980 C247 980 261 964 261 944 C261 925 247 908 227 908 L227 908 Z " />
<glyph glyph-name="uring" unicode="&#x16f;" horiz-adv-x="391" d="M293 551 L293 167 C293 110 254 64 209 64 C164 64 126 110 126 167 L126 583 L62 583 L62 167 C62 76 128 0 209 0 C240 0 269 12 293 30 L293 0 L356 0 L356 167 L356 551 L356 583 L293 583 L293 551 L293 551 Z M286 720 C286 769 247 809 198 809 C150 809 110 769 110 720 C110 672 150 632 198 632 C247 632 286 672 286 720 L286 720 L286 720 Z M198 684 C178 684 164 701 164 720 C164 740 178 756 198 756 C218 756 232 740 232 720 C232 701 218 684 198 684 L198 684 Z " />
<glyph glyph-name="Uhungarumlaut" unicode="&#x170;" horiz-adv-x="446" d="M313 167 C313 109 267 64 209 64 L201 64 C143 64 97 109 97 167 L97 811 L34 811 L34 167 C34 74 108 0 201 0 L209 0 C301 0 376 74 376 167 L376 811 L313 811 L313 167 L313 167 Z M134 944 L176 944 L202 1033 L150 1033 L134 944 L134 944 Z M206 944 L247 944 L274 1033 L220 1033 L206 944 L206 944 Z " />
<glyph glyph-name="uhungarumlaut" unicode="&#x171;" horiz-adv-x="391" d="M293 551 L293 167 C293 110 254 64 209 64 C164 64 126 110 126 167 L126 583 L62 583 L62 167 C62 76 128 0 209 0 C240 0 269 12 293 30 L293 0 L356 0 L356 167 L356 551 L356 583 L293 583 L293 551 L293 551 Z M107 720 L149 720 L175 809 L123 809 L107 720 L107 720 Z M179 720 L220 720 L247 809 L193 809 L179 720 L179 720 Z " />
<glyph glyph-name="Uogonek" unicode="&#x172;" horiz-adv-x="458" d="M332 167 C332 109 286 64 228 64 L220 64 C162 64 116 109 116 167 L116 811 L53 811 L53 167 C53 74 127 0 220 0 L228 0 C320 0 395 74 395 167 L395 811 L332 811 L332 167 L332 167 Z M220 -82 C220 -79 223 -73 229 -65 C242 -49 263 -24 263 22 L200 22 C200 -1 192 -12 180 -26 C169 -40 156 -56 156 -82 C156 -132 204 -166 274 -166 L274 -103 C242 -103 220 -92 220 -82 L220 -82 Z " />
<glyph glyph-name="uogonek" unicode="&#x173;" horiz-adv-x="391" d="M293 551 L293 167 C293 110 254 64 209 64 C164 64 126 110 126 167 L126 583 L62 583 L62 167 C62 76 128 0 209 0 C240 0 269 12 293 30 L293 0 L356 0 L356 167 L356 551 L356 583 L293 583 L293 551 L293 551 Z M298 -130 C298 -127 301 -121 307 -113 C320 -97 341 -72 341 -26 L278 -26 C278 -49 270 -60 258 -74 C247 -88 234 -104 234 -130 C234 -180 282 -214 352 -214 L352 -151 C320 -151 298 -140 298 -130 L298 -130 Z " />
<glyph glyph-name="Ydieresis" unicode="&#x178;" horiz-adv-x="466" d="M210 428 L95 811 L29 811 L179 312 L179 0 L243 0 L243 314 L388 811 L322 811 L210 428 L210 428 Z M228 850 L286 850 L286 910 L228 910 L228 850 L228 850 Z M134 850 L193 850 L193 910 L134 910 L134 850 L134 850 Z " />
<glyph glyph-name="Zacute" unicode="&#x179;" horiz-adv-x="462" d="M54 811 L54 746 L287 746 L29 0 L358 0 L358 0 L358 62 L118 62 L376 811 L54 811 Z M196 908 L238 908 L264 997 L212 997 L196 908 L196 908 Z " />
<glyph glyph-name="zacute" unicode="&#x17a;" horiz-adv-x="388" d="M347 583 L73 583 L73 520 L253 520 L50 0 L330 0 L330 64 L144 64 L322 520 L347 583 L347 583 Z M157 684 L199 684 L225 773 L173 773 L157 684 L157 684 Z " />
<glyph glyph-name="Zdotaccent" unicode="&#x17b;" horiz-adv-x="462" d="M54 811 L54 746 L287 746 L29 0 L358 0 L358 0 L358 62 L118 62 L376 811 L54 811 Z M249 885 C268 885 284 901 284 920 C284 939 268 955 249 955 C230 955 214 939 214 920 C214 901 230 885 249 885 L249 885 Z " />
<glyph glyph-name="zdotaccent" unicode="&#x17c;" horiz-adv-x="388" d="M347 583 L73 583 L73 520 L253 520 L50 0 L330 0 L330 64 L144 64 L322 520 L347 583 L347 583 Z M213 739 C232 739 248 755 248 774 C248 793 232 809 213 809 C194 809 178 793 178 774 C178 755 194 739 213 739 L213 739 Z " />
<glyph glyph-name="Zcaron" unicode="&#x17d;" horiz-adv-x="462" d="M54 811 L54 746 L287 746 L29 0 L358 0 L358 0 L358 62 L118 62 L376 811 L54 811 Z M215 911 L97 960 L73 903 L215 843 L360 905 L335 963 L215 911 L215 911 Z " />
<glyph glyph-name="zcaron" unicode="&#x17e;" horiz-adv-x="388" d="M347 583 L73 583 L73 520 L253 520 L50 0 L330 0 L330 64 L144 64 L322 520 L347 583 L347 583 Z M202 757 L84 806 L60 749 L202 689 L347 751 L322 809 L202 757 L202 757 Z " />
<glyph glyph-name="florin" unicode="&#x192;" horiz-adv-x="388" d="M122 640 L122 514 L48 514 L48 450 L122 450 L122 167 C122 102 85 62 60 62 L60 0 C128 0 186 74 186 167 L186 450 L289 450 L289 514 L186 514 L186 640 C186 696 224 744 269 744 C287 744 304 738 318 725 L360 772 C335 794 302 808 269 808 C188 808 122 732 122 640 L122 640 Z " />
<glyph glyph-name="Scommaaccent" unicode="&#x218;" horiz-adv-x="449" d="M223 432 C157 493 96 554 97 648 C97 704 144 749 203 749 C261 749 307 700 307 638 L371 638 C371 734 295 811 203 811 C109 811 35 740 34 648 C33 527 111 450 180 386 C247 324 310 264 307 168 C306 77 241 64 203 64 C145 64 99 113 99 174 L35 174 C35 78 111 0 203 0 C250 0 291 14 319 41 C352 71 370 114 371 166 C373 292 294 367 223 432 L223 432 Z M233 -43 L174 -43 L174 -98 L200 -98 L200 -98 C200 -123 182 -121 182 -121 L182 -143 C234 -143 233 -98 233 -98 L233 -43 L233 -43 Z " />
<glyph glyph-name="scommaaccent" unicode="&#x219;" horiz-adv-x="368" d="M200 320 C150 362 107 400 108 458 C108 492 140 518 181 518 C209 518 234 504 247 481 L302 512 C278 556 233 583 181 583 C106 583 46 528 44 460 C43 370 106 317 161 270 C211 227 256 188 254 127 C253 76 214 65 181 65 C151 65 125 82 114 107 L55 82 C77 32 126 0 181 0 C262 0 316 49 317 125 C319 218 257 272 200 320 L200 320 Z M209 -43 L150 -43 L150 -98 L176 -98 L176 -98 C176 -123 158 -121 158 -121 L158 -143 C210 -143 209 -98 209 -98 L209 -43 L209 -43 Z " />
<glyph glyph-name="circumflex" unicode="&#x2c6;" horiz-adv-x="415" d="M37 682 L78 634 L209 739 L332 630 L372 678 L209 821 L37 682 Z " />
<glyph glyph-name="caron" unicode="&#x2c7;" horiz-adv-x="371" d="M190 757 L72 806 L48 749 L190 689 L335 751 L310 809 L190 757 L190 757 Z " />
<glyph glyph-name="breve" unicode="&#x2d8;" horiz-adv-x="398" d="M194 706 C150 706 112 752 112 809 L48 809 C48 716 114 642 194 642 C276 642 342 716 342 809 L278 809 C278 752 240 706 194 706 L194 706 Z " />
<glyph glyph-name="dotaccent" unicode="&#x2d9;" horiz-adv-x="169" d="M83 739 C102 739 118 755 118 774 C118 793 102 809 83 809 C64 809 48 793 48 774 C48 755 64 739 83 739 L83 739 Z " />
<glyph glyph-name="ring" unicode="&#x2da;" horiz-adv-x="247" d="M212 720 C212 769 173 809 124 809 C76 809 36 769 36 720 C36 672 76 632 124 632 C173 632 212 672 212 720 L212 720 L212 720 Z M124 684 C104 684 90 701 90 720 C90 740 104 756 124 756 C144 756 158 740 158 720 C158 701 144 684 124 684 L124 684 Z " />
<glyph glyph-name="ogonek" unicode="&#x2db;" horiz-adv-x="210" d="M112 -82 C112 -79 115 -73 121 -65 C134 -49 155 -24 155 22 L92 22 C92 -1 84 -12 72 -26 C61 -40 48 -56 48 -82 C48 -132 96 -166 166 -166 L166 -103 C134 -103 112 -92 112 -82 L112 -82 Z " />
<glyph glyph-name="tilde" unicode="&#x2dc;" horiz-adv-x="524" d="M228 685 C277 654 346 612 455 721 L410 766 C336 691 307 710 262 738 C236 754 206 773 169 773 C133 773 90 756 37 703 L83 659 C116 692 145 709 169 709 C169 709 169 709 169 709 C188 709 208 698 228 685 L228 685 Z " />
<glyph glyph-name="hungarumlaut" unicode="&#x2dd;" horiz-adv-x="248" d="M48 720 L90 720 L116 809 L64 809 L48 720 L48 720 Z M120 720 L161 720 L188 809 L134 809 L120 720 L120 720 Z " />
<glyph glyph-name="tonos" unicode="&#x384;" horiz-adv-x="170" d="M31 662 L95 662 L134 794 L55 794 L31 662 L31 662 Z " />
<glyph glyph-name="dieresistonos" unicode="&#x385;" horiz-adv-x="304" d="M142 701 L200 701 L200 761 L142 761 L142 701 L142 701 Z M48 701 L107 701 L107 761 L48 761 L48 701 L48 701 Z " />
<glyph glyph-name="Alphatonos" unicode="&#x386;" horiz-adv-x="458" d="M196 809 L40 0 L103 0 L149 232 L307 232 L352 0 L415 0 L263 809 L196 809 Z M161 294 L229 649 L295 294 L161 294 Z M74 748 L116 748 L142 837 L90 837 L74 748 L74 748 Z " />
<glyph glyph-name="Epsilontonos" unicode="&#x388;" horiz-adv-x="359" d="M53 0 L310 0 L310 62 L116 62 L116 338 L247 338 L247 401 L116 401 L116 745 L310 745 L310 809 L53 809 L53 0 Z M-71 743 L-29 743 L-3 832 L-55 832 L-71 743 L-71 743 Z " />
<glyph glyph-name="Etatonos" unicode="&#x389;" horiz-adv-x="430" d="M331 401 L128 401 L128 809 L65 809 L65 0 L128 0 L128 338 L331 338 L331 0 L395 0 L395 809 L331 809 L331 401 Z M-61 778 L-19 778 L7 867 L-45 867 L-61 778 L-61 778 Z " />
<glyph glyph-name="Iotatonos" unicode="&#x38a;" horiz-adv-x="169" d="M62 0 L126 0 L126 808 L62 808 L62 0 Z M-58 775 L-16 775 L10 864 L-42 864 L-58 775 L-58 775 Z " />
<glyph glyph-name="Omicrontonos" unicode="&#x38c;" horiz-adv-x="438" d="M228 808 L220 808 C127 808 53 733 53 641 L53 167 C53 74 127 0 220 0 L228 0 C320 0 395 74 395 167 L395 641 C395 733 320 808 228 808 L228 808 Z M332 167 C332 109 286 62 228 62 L220 62 C162 62 116 109 116 167 L116 641 C116 698 162 744 220 744 L228 744 C286 744 332 698 332 641 L332 167 Z M-19 733 L23 733 L49 822 L-3 822 L-19 733 L-19 733 Z " />
<glyph glyph-name="Upsilontonos" unicode="&#x38e;" horiz-adv-x="466" d="M232 428 L116 809 L50 809 L200 312 L200 1 L264 1 L264 314 L409 809 L343 809 L232 428 Z M-59 770 L-17 770 L9 859 L-43 859 L-59 770 L-59 770 Z " />
<glyph glyph-name="Omegatonos" unicode="&#x38f;" horiz-adv-x="848" d="M682 452 C670 517 635 580 584 626 C532 674 469 701 409 701 C348 701 286 674 234 626 C182 580 148 517 136 452 C115 338 146 221 234 86 L36 86 L36 24 L358 24 L320 74 C215 216 178 330 198 440 C208 492 236 542 276 581 C317 617 365 638 409 638 C454 638 502 617 541 581 C582 542 610 492 619 440 C640 330 602 216 498 74 L461 24 L781 24 L781 86 L583 86 C671 221 703 338 682 452 L682 452 Z " />
<glyph glyph-name="iotadieresistonos" unicode="&#x390;" horiz-adv-x="400" d="M216 653 L275 653 L275 713 L216 713 L216 653 L216 653 Z M62 653 L121 653 L121 713 L62 713 L62 653 L62 653 Z M277 74 C269 67 258 62 245 62 C221 62 193 80 193 118 L193 600 L71 600 L71 536 L131 536 L131 118 C131 41 190 0 245 0 C274 0 301 11 321 30 C336 44 354 72 354 118 L292 118 C292 98 287 84 277 74 L277 74 Z M142 684 L184 684 L210 773 L158 773 L142 684 L142 684 Z " />
<glyph glyph-name="Alpha" unicode="&#x391;" horiz-adv-x="458" d="M196 809 L40 0 L103 0 L149 232 L307 232 L352 0 L415 0 L263 809 L196 809 Z M161 294 L229 649 L295 294 L161 294 Z " />
<glyph glyph-name="Beta" unicode="&#x392;" horiz-adv-x="406" d="M281 492 C316 523 337 572 337 628 L337 642 C336 734 272 809 196 809 L53 809 L53 779 L53 745 L53 511 L53 449 L53 64 L53 0 L116 0 L209 0 C294 0 364 74 364 166 L364 346 C364 409 330 464 281 492 L281 492 Z M116 745 L196 745 C238 745 275 697 275 638 L275 625 C274 569 239 523 197 523 L116 523 L116 745 Z M301 166 C301 109 259 64 209 64 L116 64 L116 449 L209 449 C259 449 301 402 301 346 L301 166 Z " />
<glyph glyph-name="Gamma" unicode="&#x393;" horiz-adv-x="355" d="M304 811 L41 811 L41 809 L41 749 L41 0 L103 0 L103 749 L304 749 L304 811 L304 811 Z " />
<glyph glyph-name="&amp;#x394;" unicode="&#x394;" horiz-adv-x="506" d="M280 695 L230 695 L60 0 L450 0 L286 671 L280 695 L280 695 Z M140 62 L254 530 L370 62 L140 62 L140 62 Z " />
<glyph glyph-name="&amp;#x2206;" unicode="&#x2206;" horiz-adv-x="506" d="M280 695 L230 695 L60 0 L450 0 L286 671 L280 695 L280 695 Z M140 62 L254 530 L370 62 L140 62 L140 62 Z " />
<glyph glyph-name="Epsilon" unicode="&#x395;" horiz-adv-x="359" d="M53 0 L310 0 L310 62 L116 62 L116 338 L247 338 L247 401 L116 401 L116 745 L310 745 L310 809 L53 809 L53 0 Z " />
<glyph glyph-name="Zeta" unicode="&#x396;" horiz-adv-x="462" d="M328 809 L328 808 L73 808 L73 744 L306 744 L48 0 L73 0 L73 0 L114 0 L377 0 L377 0 L377 62 L137 62 L395 809 L328 809 Z " />
<glyph glyph-name="Eta" unicode="&#x397;" horiz-adv-x="430" d="M331 401 L128 401 L128 809 L65 809 L65 0 L128 0 L128 338 L331 338 L331 0 L395 0 L395 809 L331 809 L331 401 Z " />
<glyph glyph-name="Theta" unicode="&#x398;" horiz-adv-x="438" d="M228 808 L220 808 C127 808 53 733 53 641 L53 167 C53 74 127 0 220 0 L228 0 C320 0 395 74 395 167 L395 641 C395 733 320 808 228 808 L228 808 Z M220 744 L228 744 C286 744 332 698 332 641 L332 433 L116 433 L116 641 C116 698 162 744 220 744 L220 744 Z M228 62 L220 62 C162 62 116 109 116 167 L116 371 L332 371 L332 167 C332 109 286 62 228 62 L228 62 Z " />
<glyph glyph-name="Iota" unicode="&#x399;" horiz-adv-x="169" d="M62 0 L126 0 L126 808 L62 808 L62 0 Z " />
<glyph glyph-name="Kappa" unicode="&#x39a;" horiz-adv-x="458" d="M414 808 L338 808 L124 473 L124 808 L60 808 L60 0 L124 0 L124 359 L179 451 L343 0 L419 0 L223 514 L414 808 Z " />
<glyph glyph-name="Lambda" unicode="&#x39b;" horiz-adv-x="449" d="M336 0 L401 0 L256 775 L250 809 L198 809 L192 775 L48 0 L112 0 L224 602 L336 0 Z " />
<glyph glyph-name="Mu" unicode="&#x39c;" horiz-adv-x="502" d="M456 809 L390 809 L252 365 L114 809 L48 809 L49 804 L49 0 L113 0 L113 601 L218 259 L227 234 L277 234 L286 259 L394 610 L394 0 L457 0 L457 806 L455 806 L456 809 Z " />
<glyph glyph-name="Nu" unicode="&#x39d;" horiz-adv-x="454" d="M347 809 L347 168 L121 809 L109 809 L47 809 L47 0 L110 0 L110 649 L338 0 L358 0 L360 1 L401 14 L358 0 L409 0 L409 809 L347 809 Z " />
<glyph glyph-name="Xi" unicode="&#x39e;" horiz-adv-x="462" d="M78 371 L385 371 L385 433 L78 433 L78 371 L78 371 Z M41 749 L424 749 L424 811 L41 811 L41 749 L41 749 Z M35 1 L428 1 L428 64 L35 64 L35 1 L35 1 Z " />
<glyph glyph-name="Omicron" unicode="&#x39f;" horiz-adv-x="438" d="M228 808 L220 808 C127 808 53 733 53 641 L53 167 C53 74 127 0 220 0 L228 0 C320 0 395 74 395 167 L395 641 C395 733 320 808 228 808 L228 808 Z M332 167 C332 109 286 62 228 62 L220 62 C162 62 116 109 116 167 L116 641 C116 698 162 744 220 744 L228 744 C286 744 332 698 332 641 L332 167 Z " />
<glyph glyph-name="Pi" unicode="&#x3a0;" horiz-adv-x="571" d="M48 652 L140 652 L140 36 L204 36 L204 652 L380 652 L380 36 L443 36 L443 652 L548 652 L548 714 L48 714 L48 652 L48 652 Z " />
<glyph glyph-name="Rho" unicode="&#x3a1;" horiz-adv-x="415" d="M221 809 L53 809 L53 806 L53 745 L53 362 L53 299 L53 1 L116 1 L116 299 L221 299 C307 299 377 373 377 464 L377 643 C377 734 307 809 221 809 L221 809 Z M313 464 C313 408 272 362 221 362 L116 362 L116 745 L221 745 C272 745 313 700 313 643 L313 464 Z " />
<glyph glyph-name="Sigma" unicode="&#x3a3;" horiz-adv-x="462" d="M222 328 L48 0 L415 0 L415 62 L152 62 L294 328 L152 593 L415 593 L415 655 L48 655 L222 328 L222 328 Z " />
<glyph glyph-name="Tau" unicode="&#x3a4;" horiz-adv-x="406" d="M48 745 L169 745 L169 1 L232 1 L232 745 L352 745 L352 809 L48 809 L48 745 Z " />
<glyph glyph-name="Upsilon" unicode="&#x3a5;" horiz-adv-x="466" d="M232 428 L116 809 L50 809 L200 312 L200 1 L264 1 L264 314 L409 809 L343 809 L232 428 Z " />
<glyph glyph-name="Phi" unicode="&#x3a6;" horiz-adv-x="443" d="M254 805 L254 858 L191 858 L191 805 C112 792 53 724 53 641 L53 167 C53 84 112 16 191 2 L191 -97 L254 -97 L254 2 C334 14 395 83 395 167 L395 641 C395 724 334 793 254 805 L254 805 Z M116 167 L116 641 C116 689 148 727 191 740 L191 66 C148 79 116 119 116 167 L116 167 Z M332 167 C332 119 299 78 254 66 L254 740 C299 730 332 689 332 641 L332 167 L332 167 Z " />
<glyph glyph-name="Chi" unicode="&#x3a7;" horiz-adv-x="467" d="M340 809 L227 480 L115 809 L48 809 L194 383 L62 0 L130 0 L227 286 L325 0 L392 0 L260 383 L407 809 L340 809 Z " />
<glyph glyph-name="Psi" unicode="&#x3a8;" horiz-adv-x="448" d="M320 809 L320 506 C320 454 290 408 248 392 L248 806 L185 806 L185 392 C143 408 113 454 113 506 L113 809 L40 809 L40 506 C40 413 103 334 185 318 L185 0 L248 0 L248 318 C331 334 394 413 394 506 L394 809 L320 809 L320 809 Z " />
<glyph glyph-name="&amp;#x3a9;" unicode="&#x3a9;" horiz-adv-x="828" d="M694 428 C682 493 647 556 596 602 C544 650 481 677 421 677 C360 677 298 650 246 602 C194 556 160 493 148 428 C127 314 158 197 246 62 L48 62 L48 0 L370 0 L332 50 C227 192 190 306 210 416 C220 468 248 518 288 557 C329 593 377 614 421 614 C466 614 514 593 553 557 C594 518 622 468 631 416 C652 306 614 192 510 50 L473 0 L793 0 L793 62 L595 62 C683 197 715 314 694 428 L694 428 Z " />
<glyph glyph-name="&amp;#x2126;" unicode="&#x2126;" horiz-adv-x="828" d="M694 428 C682 493 647 556 596 602 C544 650 481 677 421 677 C360 677 298 650 246 602 C194 556 160 493 148 428 C127 314 158 197 246 62 L48 62 L48 0 L370 0 L332 50 C227 192 190 306 210 416 C220 468 248 518 288 557 C329 593 377 614 421 614 C466 614 514 593 553 557 C594 518 622 468 631 416 C652 306 614 192 510 50 L473 0 L793 0 L793 62 L595 62 C683 197 715 314 694 428 L694 428 Z " />
<glyph glyph-name="Iotadieresis" unicode="&#x3aa;" horiz-adv-x="169" d="M62 0 L126 0 L126 808 L62 808 L62 0 Z M80 925 L138 925 L138 985 L80 985 L80 925 L80 925 Z M-14 925 L45 925 L45 985 L-14 985 L-14 925 L-14 925 Z " />
<glyph glyph-name="Upsilondieresis" unicode="&#x3ab;" horiz-adv-x="470" d="M229 428 L114 809 L48 809 L198 312 L198 1 L262 1 L262 314 L407 809 L341 809 L229 428 Z M233 881 L291 881 L291 941 L233 941 L233 881 L233 881 Z M139 881 L198 881 L198 941 L139 941 L139 881 L139 881 Z " />
<glyph glyph-name="alphatonos" unicode="&#x3ac;" horiz-adv-x="700" d="M532 72 C506 72 487 128 472 188 C479 202 485 216 491 230 C540 349 563 486 563 564 L500 564 C500 502 482 392 448 292 C434 344 419 396 396 439 C359 511 306 548 238 548 C180 548 130 512 94 446 C65 392 48 322 48 251 C48 185 62 125 89 82 C121 28 172 0 232 0 C306 0 373 38 427 115 C449 53 478 10 532 10 C584 10 648 35 648 157 L584 157 C584 79 557 72 532 72 L532 72 Z M232 62 C116 62 112 220 112 251 C112 364 162 485 238 485 C330 485 362 378 398 227 C401 216 402 206 404 197 C362 120 305 62 232 62 L232 62 Z M314 684 L356 684 L382 773 L330 773 L314 684 L314 684 Z " />
<glyph glyph-name="epsilontonos" unicode="&#x3ad;" horiz-adv-x="418" d="M112 433 C112 488 150 536 194 536 C240 536 278 488 278 433 L342 433 C342 524 276 599 194 599 C114 599 48 524 48 433 L48 385 L48 214 L48 166 C48 74 114 0 194 0 C276 0 342 74 342 166 L278 166 C278 110 240 62 194 62 C150 62 112 110 112 166 L112 214 L112 263 L316 263 L316 325 L112 325 L112 385 L112 433 L112 433 Z M174 684 L216 684 L242 773 L190 773 L174 684 L174 684 Z " />
<glyph glyph-name="etatonos" unicode="&#x3ae;" horiz-adv-x="396" d="M197 583 C166 583 137 572 114 553 L114 583 L50 583 L50 416 L50 36 L50 1 L114 1 L114 36 L114 416 C114 473 152 521 197 521 C242 521 281 473 281 416 L281 -155 L344 -155 L344 416 C344 509 278 583 197 583 L197 583 Z M162 684 L204 684 L230 773 L178 773 L162 684 L162 684 Z " />
<glyph glyph-name="iotatonos" unicode="&#x3af;" horiz-adv-x="358" d="M254 74 C246 67 235 62 222 62 C198 62 170 80 170 118 L170 600 L48 600 L48 536 L108 536 L108 118 C108 41 167 0 222 0 C251 0 278 11 298 30 C313 44 331 72 331 118 L269 118 C269 98 264 84 254 74 L254 74 Z M143 684 L185 684 L211 773 L159 773 L143 684 L143 684 Z " />
<glyph glyph-name="upsilondieresistonos" unicode="&#x3b0;" horiz-adv-x="540" d="M377 558 C437 420 432 238 365 134 C336 89 299 65 256 62 C247 74 226 122 203 301 C188 412 181 518 181 518 L179 560 L48 515 L68 455 L121 474 C126 427 133 348 144 270 C154 198 164 140 175 98 C188 49 206 0 247 0 C317 0 376 35 418 100 C456 158 479 239 481 328 C485 416 468 506 434 583 L377 558 Z M324 653 L383 653 L383 713 L324 713 L324 653 Z M170 653 L229 653 L229 713 L170 713 L170 653 Z M252 684 L294 684 L320 773 L268 773 L252 684 L252 684 Z " />
<glyph glyph-name="alpha" unicode="&#x3b1;" horiz-adv-x="700" d="M532 72 C506 72 487 128 472 188 C479 202 485 216 491 230 C540 349 563 486 563 564 L500 564 C500 502 482 392 448 292 C434 344 419 396 396 439 C359 511 306 548 238 548 C180 548 130 512 94 446 C65 392 48 322 48 251 C48 185 62 125 89 82 C121 28 172 0 232 0 C306 0 373 38 427 115 C449 53 478 10 532 10 C584 10 648 35 648 157 L584 157 C584 79 557 72 532 72 L532 72 Z M232 62 C116 62 112 220 112 251 C112 364 162 485 238 485 C330 485 362 378 398 227 C401 216 402 206 404 197 C362 120 305 62 232 62 L232 62 Z " />
<glyph glyph-name="beta" unicode="&#x3b2;" horiz-adv-x="468" d="M332 476 C319 487 307 496 294 503 C330 528 360 568 368 625 C382 730 334 781 304 802 C254 835 185 839 130 810 C78 784 48 734 48 677 L48 -192 L112 -192 L112 677 C112 722 140 745 158 755 C193 773 238 770 268 750 C299 727 312 688 306 634 C294 540 193 526 184 524 C182 524 181 524 181 524 L188 462 C190 462 190 462 191 462 C198 462 250 466 292 428 C330 394 350 334 350 248 C350 175 336 125 307 97 C275 65 228 66 190 67 C184 67 178 68 173 68 L173 5 C178 5 182 5 188 5 C233 4 300 1 352 52 C394 92 413 157 413 248 C413 353 386 430 332 476 L332 476 Z " />
<glyph glyph-name="gamma" unicode="&#x3b3;" horiz-adv-x="596" d="M520 612 C443 520 395 409 365 304 C346 414 314 492 271 539 C240 571 204 588 162 588 C118 588 92 570 78 554 C43 517 48 462 48 456 L112 462 C110 469 110 497 125 512 C133 521 145 526 162 526 C186 526 206 516 226 496 C292 425 317 248 325 85 C308 -76 322 -198 323 -203 L385 -202 C386 -197 395 -68 388 84 C403 226 446 425 568 571 L520 612 L520 612 Z " />
<glyph glyph-name="delta" unicode="&#x3b4;" horiz-adv-x="428" d="M298 337 C192 430 166 493 176 521 C184 540 214 542 227 542 C302 542 323 503 324 502 C324 503 323 503 323 503 L382 528 C380 530 347 605 227 605 C172 605 132 582 118 542 C106 512 107 464 155 397 C25 235 41 136 62 90 C90 32 151 0 233 0 C301 0 356 36 379 96 C408 174 376 269 298 337 L298 337 Z M319 119 C306 83 275 62 233 62 C178 62 136 83 120 116 C95 169 122 252 196 348 C212 330 233 311 256 290 C328 228 335 158 319 119 L319 119 Z " />
<glyph glyph-name="epsilon" unicode="&#x3b5;" horiz-adv-x="418" d="M112 433 C112 488 150 536 194 536 C240 536 278 488 278 433 L342 433 C342 524 276 599 194 599 C114 599 48 524 48 433 L48 385 L48 214 L48 166 C48 74 114 0 194 0 C276 0 342 74 342 166 L278 166 C278 110 240 62 194 62 C150 62 112 110 112 166 L112 214 L112 263 L316 263 L316 325 L112 325 L112 385 L112 433 L112 433 Z " />
<glyph glyph-name="zeta" unicode="&#x3b6;" horiz-adv-x="571" d="M347 34 C336 34 325 34 316 34 C245 32 208 34 188 54 C154 90 156 214 169 388 C172 428 179 463 188 492 C229 490 278 503 335 528 C440 577 444 628 437 653 C427 689 385 710 334 706 C282 701 229 672 191 626 C175 608 162 588 150 566 C150 566 149 566 149 568 C113 592 109 654 112 676 L80 678 L48 680 C48 676 40 566 112 516 C116 512 121 510 127 506 C116 473 109 434 106 392 C88 152 96 60 142 11 C181 -31 238 -30 316 -30 C326 -30 336 -30 347 -30 C433 -30 468 -62 468 -79 C468 -88 461 -96 448 -103 C426 -116 392 -122 353 -122 L353 -186 C404 -186 448 -176 479 -158 C512 -139 532 -110 532 -79 C532 -25 474 34 347 34 L347 34 Z M319 638 C330 642 340 643 348 643 C362 643 373 640 376 636 C374 630 360 610 308 586 C274 570 242 559 217 556 C253 616 300 634 319 638 L319 638 Z " />
<glyph glyph-name="eta" unicode="&#x3b7;" horiz-adv-x="396" d="M197 583 C166 583 137 572 114 553 L114 583 L50 583 L50 416 L50 36 L50 1 L114 1 L114 36 L114 416 C114 473 152 521 197 521 C242 521 281 473 281 416 L281 -155 L344 -155 L344 416 C344 509 278 583 197 583 L197 583 Z " />
<glyph glyph-name="theta" unicode="&#x3b8;" horiz-adv-x="383" d="M197 582 C116 582 50 508 50 416 L50 167 C50 76 116 1 197 1 C278 1 344 76 344 167 L344 416 C344 508 278 582 197 582 L197 582 Z M197 520 C242 520 281 472 281 416 L281 325 L114 325 L114 416 C114 472 152 520 197 520 L197 520 Z M197 64 C152 64 114 112 114 167 L114 263 L281 263 L281 167 C281 112 242 64 197 64 L197 64 Z " />
<glyph glyph-name="iota" unicode="&#x3b9;" horiz-adv-x="358" d="M254 74 C246 67 235 62 222 62 C198 62 170 80 170 118 L170 600 L48 600 L48 536 L108 536 L108 118 C108 41 167 0 222 0 C251 0 278 11 298 30 C313 44 331 72 331 118 L269 118 C269 98 264 84 254 74 L254 74 Z " />
<glyph glyph-name="kappa" unicode="&#x3ba;" horiz-adv-x="466" d="M320 583 L128 347 L128 583 L65 583 L65 0 L128 0 L128 242 L197 330 L318 1 L390 1 L245 385 L397 583 L320 583 Z " />
<glyph glyph-name="lambda" unicode="&#x3bb;" horiz-adv-x="658" d="M484 182 C437 265 397 373 362 468 C335 542 311 608 287 650 C234 746 174 748 144 740 C90 726 48 664 48 598 L112 598 C112 635 133 672 160 679 C181 685 208 664 232 620 C253 582 277 516 302 445 L326 383 L325 384 L152 0 L222 0 L358 302 C379 250 402 197 428 151 C490 42 553 -11 623 -11 L623 52 C578 52 532 96 484 182 L484 182 Z " />
<glyph glyph-name="nu" unicode="&#x3bd;" horiz-adv-x="377" d="M179 206 L109 582 L46 582 L146 34 L152 5 L154 0 L178 0 L179 0 L180 0 L205 0 L205 5 L211 34 L312 582 L248 582 L179 206 Z " />
<glyph glyph-name="xi" unicode="&#x3be;" horiz-adv-x="576" d="M347 34 C336 34 325 34 316 34 C245 32 208 34 188 54 C163 80 157 150 161 251 L377 251 L377 314 L164 314 C166 337 167 362 169 388 C172 428 179 463 188 492 C229 490 278 503 335 528 C440 577 444 628 437 653 C427 689 385 710 334 706 C282 701 229 672 191 626 C175 608 162 588 150 566 C150 566 149 566 149 568 C113 592 109 654 112 676 L80 678 L48 680 C48 676 40 566 112 516 C116 512 121 510 127 506 C116 473 109 434 106 392 C88 152 96 60 142 11 C181 -31 238 -30 316 -30 C326 -30 336 -30 347 -30 C433 -30 468 -62 468 -79 C468 -88 461 -96 448 -103 C426 -116 392 -122 353 -122 L353 -186 C404 -186 448 -176 479 -158 C512 -139 532 -110 532 -79 C532 -25 474 34 347 34 L347 34 Z M319 638 C330 642 340 643 348 643 C362 643 373 640 376 636 C374 630 360 610 308 586 C274 570 242 559 217 556 C253 616 300 634 319 638 L319 638 Z " />
<glyph glyph-name="omicron" unicode="&#x3bf;" horiz-adv-x="391" d="M197 582 C116 582 50 508 50 416 L50 167 C50 76 116 1 197 1 C278 1 344 76 344 167 L344 416 C344 508 278 582 197 582 L197 582 Z M281 167 C281 112 242 64 197 64 C152 64 114 112 114 167 L114 416 C114 472 152 520 197 520 C242 520 281 472 281 416 L281 167 Z " />
<glyph glyph-name="pi" unicode="&#x3c0;" horiz-adv-x="670" d="M325 504 C258 481 199 461 78 527 L48 472 C101 443 145 428 184 422 L184 36 L247 36 L247 420 C284 424 316 434 346 445 C372 454 396 462 424 466 L424 36 L486 36 L486 463 C517 458 553 445 598 421 L628 476 C480 557 398 529 325 504 L325 504 Z " />
<glyph glyph-name="rho" unicode="&#x3c1;" horiz-adv-x="396" d="M209 582 C178 582 149 571 126 552 L126 583 L62 583 L62 415 L62 167 L62 -193 L126 -193 L126 30 C149 11 178 0 209 0 C290 0 356 85 356 178 L356 415 C356 508 290 582 209 582 L209 582 Z M293 167 C293 110 254 62 209 62 C164 62 126 110 126 167 L126 415 C126 472 164 518 209 518 C254 518 293 472 293 415 L293 167 Z " />
<glyph glyph-name="sigma1" unicode="&#x3c2;" horiz-adv-x="556" d="M254 568 C199 562 148 532 109 480 C72 432 50 372 48 311 C46 244 68 181 113 133 C163 77 239 41 337 24 C374 18 400 -1 406 -29 C410 -53 401 -76 380 -90 C341 -116 271 -101 194 -48 L158 -100 C232 -150 289 -166 332 -166 C373 -166 401 -151 415 -142 C457 -114 478 -65 467 -16 C456 38 410 76 347 86 C193 112 108 192 112 308 C113 356 130 404 158 442 C187 479 223 502 260 505 C317 510 360 499 389 470 C443 416 434 318 433 317 L466 314 L497 311 C497 316 509 439 433 515 C391 557 330 575 254 568 L254 568 Z " />
<glyph glyph-name="sigma" unicode="&#x3c3;" horiz-adv-x="466" d="M48 385 L48 166 C48 74 114 0 194 0 C276 0 342 74 342 166 L342 385 C342 424 330 460 310 488 L421 488 L421 551 L194 551 C114 551 48 476 48 385 L48 385 Z M278 385 L278 166 C278 110 240 62 194 62 C150 62 112 110 112 166 L112 385 C112 440 150 488 194 488 C240 488 278 440 278 385 L278 385 Z " />
<glyph glyph-name="tau" unicode="&#x3c4;" horiz-adv-x="220" d="M-48 529 L91 529 L91 -46 L154 -46 L154 592 L-48 592 L-48 529 Z " />
<glyph glyph-name="upsilon" unicode="&#x3c5;" horiz-adv-x="515" d="M365 558 C425 420 420 238 353 134 C324 89 287 65 244 62 C235 74 214 122 191 301 C176 412 169 518 169 518 L167 560 L36 515 L56 455 L109 474 C114 427 121 348 132 270 C142 198 152 140 163 98 C176 49 194 0 235 0 C305 0 364 35 406 100 C444 158 467 239 469 328 C473 416 456 506 422 583 L365 558 L365 558 Z " />
<glyph glyph-name="phi" unicode="&#x3c6;" horiz-adv-x="398" d="M222 580 L222 688 L158 688 L158 576 C96 557 50 492 50 416 L50 167 C50 90 96 26 158 7 L158 -72 L222 -72 L222 4 C292 17 344 85 344 167 L344 416 C344 498 292 566 222 580 L222 580 Z M114 167 L114 416 C114 455 132 490 158 508 L158 76 C132 94 114 128 114 167 L114 167 Z M281 167 C281 122 256 83 222 68 L222 515 C256 500 281 461 281 416 L281 167 L281 167 Z " />
<glyph glyph-name="chi" unicode="&#x3c7;" horiz-adv-x="474" d="M406 583 L336 583 L241 382 L146 583 L77 583 L206 308 L62 0 L132 0 L242 234 L353 0 L422 0 L277 308 L406 583 Z " />
<glyph glyph-name="psi" unicode="&#x3c8;" horiz-adv-x="443" d="M320 581 L320 290 C320 238 290 192 248 176 L248 578 L185 578 L185 176 C143 192 113 238 113 290 L113 581 L40 581 L40 290 C40 197 103 118 185 102 L185 -216 L248 -216 L248 102 C331 118 394 197 394 290 L394 581 L320 581 L320 581 Z " />
<glyph glyph-name="omega" unicode="&#x3c9;" horiz-adv-x="754" d="M576 583 L530 539 C653 416 676 252 634 152 C620 119 587 62 516 62 C508 62 496 65 482 79 C454 109 436 170 425 240 C433 316 428 410 412 522 L348 518 C348 515 344 425 353 322 C354 293 358 265 361 240 C354 178 337 131 312 101 C290 76 260 62 222 62 C174 62 148 97 133 125 C90 214 104 378 216 523 L166 562 C32 388 26 199 77 97 C108 35 161 0 222 0 C280 0 325 20 360 60 C372 74 383 91 392 110 C404 78 420 53 437 35 C460 12 486 0 516 0 C594 0 659 47 692 127 C719 192 724 271 706 350 C686 437 641 517 576 583 L576 583 Z " />
<glyph glyph-name="iotadieresis" unicode="&#x3ca;" horiz-adv-x="358" d="M254 74 C246 67 235 62 222 62 C198 62 170 80 170 118 L170 600 L48 600 L48 536 L108 536 L108 118 C108 41 167 0 222 0 C251 0 278 11 298 30 C313 44 331 72 331 118 L269 118 C269 98 264 84 254 74 L254 74 Z M114 701 L172 701 L172 761 L114 761 L114 701 L114 701 Z M20 701 L79 701 L79 761 L20 761 L20 701 L20 701 Z " />
<glyph glyph-name="upsilondieresis" unicode="&#x3cb;" horiz-adv-x="515" d="M365 558 C425 420 420 238 353 134 C324 89 287 65 244 62 C235 74 214 122 191 301 C176 412 169 518 169 518 L167 560 L36 515 L56 455 L109 474 C114 427 121 348 132 270 C142 198 152 140 163 98 C176 49 194 0 235 0 C305 0 364 35 406 100 C444 158 467 239 469 328 C473 416 456 506 422 583 L365 558 L365 558 Z M252 701 L310 701 L310 761 L252 761 L252 701 L252 701 Z M158 701 L217 701 L217 761 L158 761 L158 701 L158 701 Z " />
<glyph glyph-name="omicrontonos" unicode="&#x3cc;" horiz-adv-x="391" d="M197 582 C116 582 50 508 50 416 L50 167 C50 76 116 1 197 1 C278 1 344 76 344 167 L344 416 C344 508 278 582 197 582 L197 582 Z M281 167 C281 112 242 64 197 64 C152 64 114 112 114 167 L114 416 C114 472 152 520 197 520 C242 520 281 472 281 416 L281 167 Z M160 684 L202 684 L228 773 L176 773 L160 684 L160 684 Z " />
<glyph glyph-name="upsilontonos" unicode="&#x3cd;" horiz-adv-x="533" d="M365 558 C425 420 420 238 353 134 C324 89 287 65 244 62 C235 74 214 122 191 301 C176 412 169 518 169 518 L167 560 L36 515 L56 455 L109 474 C114 427 121 348 132 270 C142 198 152 140 163 98 C176 49 194 0 235 0 C305 0 364 35 406 100 C444 158 467 239 469 328 C473 416 456 506 422 583 L365 558 Z M241 654 L283 654 L309 743 L257 743 L241 654 L241 654 Z " />
<glyph glyph-name="omegatonos" unicode="&#x3ce;" horiz-adv-x="797" d="M330 764 L341 632 L392 632 L398 764 L330 764 Z M576 583 L530 539 C653 416 676 252 634 152 C620 119 587 62 516 62 C508 62 496 65 482 79 C454 109 436 170 425 240 C433 316 428 410 412 522 L348 518 C348 515 344 425 353 322 C354 293 358 265 361 240 C354 178 337 131 312 101 C290 76 260 62 222 62 C174 62 148 97 133 125 C90 214 104 378 216 523 L166 562 C32 388 26 199 77 97 C108 35 161 0 222 0 C280 0 325 20 360 60 C372 74 383 91 392 110 C404 78 420 53 437 35 C460 12 486 0 516 0 C594 0 659 47 692 127 C719 192 724 271 706 350 C686 437 641 517 576 583 L576 583 Z " />
<glyph glyph-name="afii10023" unicode="&#x401;" horiz-adv-x="359" d="M53 0 L310 0 L310 62 L116 62 L116 338 L247 338 L247 401 L116 401 L116 745 L310 745 L310 809 L53 809 L53 0 Z M200 893 L258 893 L258 953 L200 953 L200 893 L200 893 Z M106 893 L165 893 L165 953 L106 953 L106 893 L106 893 Z " />
<glyph glyph-name="afii10051" unicode="&#x402;" horiz-adv-x="431" d="M272 566 C241 566 212 556 188 536 L188 745 L311 745 L311 808 L67 808 L67 745 L126 745 L126 410 C126 407 126 403 126 400 L126 182 L126 182 L126 -18 L188 -18 L188 409 C193 461 229 503 272 503 C318 503 356 456 356 400 L356 182 C356 121 314 62 272 62 L272 0 C359 0 419 96 419 182 L419 400 C419 491 353 566 272 566 L272 566 Z " />
<glyph glyph-name="afii10052" unicode="&#x403;" horiz-adv-x="352" d="M316 811 L53 811 L53 809 L53 749 L53 0 L115 0 L115 749 L316 749 L316 811 L316 811 Z M149 866 L191 866 L217 955 L165 955 L149 866 L149 866 Z " />
<glyph glyph-name="afii10053" unicode="&#x404;" horiz-adv-x="418" d="M214 805 C133 805 67 731 67 638 L67 538 C67 481 91 432 128 402 C91 372 67 322 67 266 L67 166 C67 73 133 -1 214 -1 L353 -1 L353 61 L214 61 C168 61 130 109 130 166 L130 266 C130 323 168 370 214 370 L305 370 L305 371 L305 433 L305 434 L214 434 C168 434 130 481 130 538 L130 638 C130 695 168 742 214 742 L353 742 L353 805 L214 805 L214 805 Z " />
<glyph glyph-name="afii10054" unicode="&#x405;" horiz-adv-x="449" d="M254 432 C188 493 127 551 128 644 C128 701 175 745 234 745 C292 745 338 696 338 635 L402 635 C402 731 326 808 234 808 C140 808 66 737 65 644 C64 523 142 450 211 386 C278 324 341 265 338 169 C337 78 272 65 234 65 C176 65 130 114 130 175 L66 175 C66 79 142 1 234 1 C281 1 322 16 350 42 C383 72 401 115 402 167 C404 293 325 367 254 432 L254 432 Z " />
<glyph glyph-name="afii10055" unicode="&#x406;" horiz-adv-x="169" d="M50 0 L114 0 L114 808 L50 808 L50 0 Z " />
<glyph glyph-name="Yi" unicode="&#x407;" horiz-adv-x="178" d="M114 848 L202 848 L202 938 L114 938 L114 848 Z M-28 848 L61 848 L61 938 L-28 938 L-28 848 Z M61 0 L125 0 L125 808 L61 808 L61 0 Z " />
<glyph glyph-name="afii10057" unicode="&#x408;" horiz-adv-x="448" d="M324 174 C324 113 277 64 220 64 C162 64 116 113 116 174 L116 372 L53 372 L53 174 C53 78 127 1 220 1 C312 1 386 78 386 174 L386 809 L324 809 L324 174 Z " />
<glyph glyph-name="afii10058" unicode="&#x409;" horiz-adv-x="718" d="M490 563 L407 563 L407 806 L343 806 L343 804 L228 804 L228 122 C228 84 202 67 176 67 C164 67 152 72 145 79 C136 89 130 103 130 122 L67 122 C67 77 85 49 101 35 C120 16 148 5 176 5 C232 5 290 46 290 122 L290 742 L343 742 L343 -2 L374 -2 L374 -4 L490 -4 C571 -4 637 71 637 163 L637 396 C637 488 571 563 490 563 L490 563 Z M574 163 C574 107 535 60 490 60 L407 60 L407 499 L490 499 C535 499 574 452 574 396 L574 163 L574 163 Z " />
<glyph glyph-name="afii10059" unicode="&#x40a;" horiz-adv-x="707" d="M496 563 L432 563 L432 806 L368 806 L368 563 L290 563 L290 806 L228 806 L228 122 C228 84 202 67 176 67 C164 67 152 72 145 79 C136 89 130 103 130 122 L67 122 C67 77 85 49 101 35 C120 16 148 5 176 5 C232 5 290 46 290 122 L290 499 L368 499 L368 -2 L400 -2 L400 -4 L516 -4 C596 -4 662 71 662 163 L662 396 C662 488 588 563 496 563 L496 563 Z M599 163 C599 107 560 60 516 60 L432 60 L432 499 L496 499 C553 499 599 454 599 396 L599 163 L599 163 Z " />
<glyph glyph-name="afii10060" unicode="&#x40b;" horiz-adv-x="472" d="M281 410 C250 410 221 398 197 380 L197 518 L335 518 L335 581 L67 581 L67 518 L133 518 L133 244 L133 28 L133 -1 L197 -1 L197 28 L197 244 C197 300 235 347 281 347 C325 347 364 300 364 244 L364 0 L427 0 L427 244 C427 335 361 410 281 410 L281 410 Z " />
<glyph glyph-name="afii10061" unicode="&#x40c;" horiz-adv-x="458" d="M414 808 L338 808 L124 473 L124 808 L60 808 L60 0 L124 0 L124 359 L179 451 L343 0 L419 0 L223 514 L414 808 Z M194 908 L236 908 L262 997 L210 997 L194 908 L194 908 Z " />
<glyph glyph-name="afii10062" unicode="&#x40e;" horiz-adv-x="472" d="M241 428 L126 809 L60 809 L210 312 L210 1 L274 1 L274 314 L419 809 L353 809 L241 428 Z M242 898 C198 898 160 944 160 1001 L96 1001 C96 908 162 834 242 834 C324 834 390 908 390 1001 L326 1001 C326 944 288 898 242 898 L242 898 Z " />
<glyph glyph-name="afii10145" unicode="&#x40f;" horiz-adv-x="547" d="M416 236 L130 236 L130 803 L67 803 L67 173 L241 173 L241 -1 L305 -1 L305 173 L480 173 L480 809 L416 809 L416 236 L416 236 Z " />
<glyph glyph-name="afii10017" unicode="&#x410;" horiz-adv-x="458" d="M204 809 L48 0 L112 0 L157 232 L316 232 L360 0 L424 0 L271 809 L204 809 Z M169 294 L238 649 L304 294 L169 294 Z " />
<glyph glyph-name="afii10018" unicode="&#x411;" horiz-adv-x="437" d="M206 371 L130 371 L130 568 L296 568 L296 631 L67 631 L67 -2 L98 -2 L98 -4 L214 -4 C295 -4 361 71 361 163 L361 204 C361 296 292 371 206 371 L206 371 Z M298 163 C298 107 259 60 214 60 L130 60 L130 307 L206 307 C257 307 298 262 298 204 L298 163 L298 163 Z " />
<glyph glyph-name="afii10019" unicode="&#x412;" horiz-adv-x="406" d="M281 492 C316 523 337 572 337 628 L337 642 C336 734 272 809 196 809 L53 809 L53 779 L53 745 L53 511 L53 449 L53 64 L53 0 L116 0 L209 0 C294 0 364 74 364 166 L364 346 C364 409 330 464 281 492 L281 492 Z M116 745 L196 745 C238 745 275 697 275 638 L275 625 C274 569 239 523 197 523 L116 523 L116 745 Z M301 166 C301 109 259 64 209 64 L116 64 L116 449 L209 449 C259 449 301 402 301 346 L301 166 Z " />
<glyph glyph-name="afii10020" unicode="&#x413;" horiz-adv-x="456" d="M406 808 L67 808 L67 -12 L130 -12 L130 744 L406 744 L406 808 L406 808 Z " />
<glyph glyph-name="afii10021" unicode="&#x414;" horiz-adv-x="769" d="M648 806 L258 806 L258 775 C258 535 202 180 80 180 L49 180 L49 0 L112 0 L112 118 L636 118 L636 0 L700 0 L700 180 L648 180 L648 806 L648 806 Z M281 395 C307 512 318 649 320 744 L586 744 L586 180 L194 180 C230 227 259 299 281 395 L281 395 Z " />
<glyph glyph-name="afii10022" unicode="&#x415;" horiz-adv-x="359" d="M53 0 L310 0 L310 62 L116 62 L116 338 L247 338 L247 401 L116 401 L116 745 L310 745 L310 809 L53 809 L53 0 Z " />
<glyph glyph-name="afii10024" unicode="&#x416;" horiz-adv-x="779" d="M535 514 L726 808 L650 808 L436 473 L436 808 L372 808 L372 473 L157 808 L82 808 L272 514 L77 0 L152 0 L317 451 L372 359 L372 0 L436 0 L436 359 L491 451 L655 0 L731 0 L535 514 L535 514 Z " />
<glyph glyph-name="afii10025" unicode="&#x417;" horiz-adv-x="431" d="M206 805 L67 805 L67 742 L206 742 C252 742 290 695 290 638 L290 538 C290 481 252 434 206 434 L115 434 L115 433 L115 371 L115 370 L206 370 C252 370 290 323 290 266 L290 166 C290 109 252 61 206 61 L67 61 L67 -1 L206 -1 C287 -1 353 73 353 166 L353 266 C353 322 329 372 292 402 C329 432 353 481 353 538 L353 638 C353 731 287 805 206 805 L206 805 Z " />
<glyph glyph-name="afii10026" unicode="&#x418;" horiz-adv-x="454" d="M60 809 L60 0 L112 0 L68 14 L109 1 L112 0 L131 0 L359 649 L359 0 L422 0 L422 809 L360 809 L348 809 L122 168 L122 809 L60 809 Z " />
<glyph glyph-name="afii10027" unicode="&#x419;" horiz-adv-x="418" d="M114 142 L287 596 L295 596 L354 596 L359 596 L359 1 L295 1 L295 420 L130 0 L126 0 L126 0 L109 0 L50 0 L50 0 L50 596 L114 596 L114 142 Z M206 706 C162 706 124 752 124 809 L60 809 C60 716 126 642 206 642 C288 642 354 716 354 809 L290 809 C290 752 252 706 206 706 L206 706 Z " />
<glyph glyph-name="afii10028" unicode="&#x41a;" horiz-adv-x="458" d="M414 808 L338 808 L124 473 L124 808 L60 808 L60 0 L124 0 L124 359 L179 451 L343 0 L419 0 L223 514 L414 808 Z " />
<glyph glyph-name="afii10029" unicode="&#x41b;" horiz-adv-x="601" d="M192 683 L161 683 L161 187 C161 119 124 61 80 61 L49 61 L49 -1 L80 -1 C160 -1 224 83 224 187 L224 619 L420 619 L420 -2 L484 -2 L484 683 L224 683 L192 683 L192 683 Z " />
<glyph glyph-name="afii10030" unicode="&#x41c;" horiz-adv-x="502" d="M457 809 L391 809 L253 365 L115 809 L49 809 L50 804 L50 0 L114 0 L114 601 L220 259 L228 234 L278 234 L287 259 L395 610 L395 0 L458 0 L458 806 L456 806 L457 809 Z " />
<glyph glyph-name="afii10031" unicode="&#x41d;" horiz-adv-x="430" d="M307 401 L104 401 L104 809 L41 809 L41 0 L104 0 L104 338 L307 338 L307 0 L371 0 L371 809 L307 809 L307 401 Z " />
<glyph glyph-name="afii10032" unicode="&#x41e;" horiz-adv-x="438" d="M228 808 L220 808 C127 808 53 733 53 641 L53 167 C53 74 127 0 220 0 L228 0 C320 0 395 74 395 167 L395 641 C395 733 320 808 228 808 L228 808 Z M332 167 C332 109 286 62 228 62 L220 62 C162 62 116 109 116 167 L116 641 C116 698 162 744 220 744 L228 744 C286 744 332 698 332 641 L332 167 Z " />
<glyph glyph-name="afii10033" unicode="&#x41f;" horiz-adv-x="502" d="M107 806 L76 806 L43 806 L43 0 L107 0 L107 744 L371 744 L371 -1 L434 -1 L434 806 L107 806 Z " />
<glyph glyph-name="afii10034" unicode="&#x420;" horiz-adv-x="415" d="M221 809 L53 809 L53 806 L53 745 L53 362 L53 299 L53 1 L116 1 L116 299 L221 299 C307 299 377 373 377 464 L377 643 C377 734 307 809 221 809 L221 809 Z M313 464 C313 408 272 362 221 362 L116 362 L116 745 L221 745 C272 745 313 700 313 643 L313 464 Z " />
<glyph glyph-name="afii10035" unicode="&#x421;" horiz-adv-x="437" d="M215 745 L223 745 C251 745 276 734 296 714 C308 701 318 684 323 666 L384 683 C376 712 361 737 341 758 C310 791 268 808 223 808 L215 808 C122 808 48 731 48 636 L48 173 C48 78 122 0 215 0 L223 0 C294 0 356 47 380 114 L320 136 C306 92 266 64 223 64 L215 64 C157 64 112 113 112 173 L112 636 C112 696 157 745 215 745 L215 745 Z " />
<glyph glyph-name="afii10036" unicode="&#x422;" horiz-adv-x="406" d="M48 745 L169 745 L169 1 L232 1 L232 745 L352 745 L352 809 L48 809 L48 745 Z " />
<glyph glyph-name="afii10037" unicode="&#x423;" horiz-adv-x="418" d="M293 548 L293 168 C293 112 254 64 209 64 C164 64 126 112 126 168 L126 583 L62 583 L62 168 C62 76 128 1 209 1 C240 1 269 12 293 31 L293 1 C293 -58 254 -108 209 -108 C187 -108 172 -97 161 -88 L118 -134 C144 -158 176 -172 209 -172 C290 -172 356 -94 356 1 L356 168 L356 548 L356 583 L293 583 L293 548 Z " />
<glyph glyph-name="afii10038" unicode="&#x424;" horiz-adv-x="438" d="M254 805 L254 858 L191 858 L191 805 C112 792 53 724 53 641 L53 167 C53 84 112 16 191 2 L191 -97 L254 -97 L254 2 C334 14 395 83 395 167 L395 641 C395 724 334 793 254 805 L254 805 Z M116 167 L116 641 C116 689 148 727 191 740 L191 66 C148 79 116 119 116 167 L116 167 Z M332 167 C332 119 299 78 254 66 L254 740 C299 730 332 689 332 641 L332 167 Z " />
<glyph glyph-name="afii10039" unicode="&#x425;" horiz-adv-x="467" d="M340 809 L227 480 L115 809 L48 809 L194 383 L62 0 L130 0 L227 286 L325 0 L392 0 L260 383 L407 809 L340 809 Z " />
<glyph glyph-name="afii10040" unicode="&#x426;" horiz-adv-x="635" d="M449 804 L386 804 L386 60 L361 60 L112 60 L112 804 L49 804 L49 -2 L361 -2 L449 -2 L503 -2 L503 -115 L566 -115 L566 60 L449 60 L449 804 L449 804 Z " />
<glyph glyph-name="afii10041" unicode="&#x427;" horiz-adv-x="475" d="M365 782 L365 406 C365 349 318 302 262 302 L215 302 C158 302 112 349 112 406 L112 805 L49 805 L49 406 C49 314 124 239 215 239 L262 239 C300 239 336 253 365 276 L365 -2 L427 -2 L427 406 L427 782 L427 808 L365 808 L365 782 L365 782 Z " />
<glyph glyph-name="afii10042" unicode="&#x428;" horiz-adv-x="607" d="M496 60 L342 60 L342 806 L278 806 L278 60 L124 60 L124 804 L61 804 L61 -2 L559 -2 L559 804 L496 804 L496 60 L496 60 Z " />
<glyph glyph-name="afii10043" unicode="&#x429;" horiz-adv-x="730" d="M548 804 L485 804 L485 60 L481 60 L331 60 L331 806 L268 806 L268 60 L113 60 L113 804 L50 804 L50 -2 L481 -2 L548 -2 L596 -2 L596 -115 L659 -115 L659 60 L548 60 L548 804 L548 804 Z " />
<glyph glyph-name="afii10044" unicode="&#x42a;" horiz-adv-x="515" d="M290 468 L215 468 L215 809 L49 809 L49 745 L152 745 L152 -2 L184 -2 L184 -4 L299 -4 C379 -4 445 71 445 162 L445 301 C445 394 377 468 290 468 L290 468 Z M383 162 C383 107 344 59 299 59 L215 59 L215 404 L290 404 C342 404 383 359 383 301 L383 162 L383 162 Z " />
<glyph glyph-name="afii10045" unicode="&#x42b;" horiz-adv-x="540" d="M209 456 L133 456 L133 806 L71 806 L71 0 L102 0 L133 0 L217 0 C298 0 364 74 364 167 L364 289 C364 382 294 456 209 456 L209 456 Z M301 167 C301 138 292 112 275 91 C259 73 239 64 217 64 L133 64 L133 392 L209 392 C259 392 301 347 301 289 L301 167 L301 167 Z M398 0 L462 0 L462 808 L398 808 L398 0 Z " />
<glyph glyph-name="afii10046" unicode="&#x42c;" horiz-adv-x="422" d="M209 456 L133 456 L133 806 L71 806 L71 0 L102 0 L133 0 L217 0 C298 0 364 74 364 167 L364 289 C364 382 294 456 209 456 L209 456 Z M301 167 C301 138 292 112 275 91 C259 73 239 64 217 64 L133 64 L133 392 L209 392 C259 392 301 347 301 289 L301 167 L301 167 Z " />
<glyph glyph-name="afii10047" unicode="&#x42d;" horiz-adv-x="497" d="M376 593 L376 529 L376 427 L91 427 L91 364 L376 364 L376 289 L376 209 C376 127 320 60 253 60 C185 60 131 127 131 209 L67 209 C67 92 150 -2 253 -2 C355 -2 438 92 438 209 L438 289 L438 529 L438 593 C438 710 355 805 253 805 C150 805 67 710 67 593 L131 593 C131 676 185 742 253 742 C320 742 376 676 376 593 L376 593 Z " />
<glyph glyph-name="afii10048" unicode="&#x42e;" horiz-adv-x="596" d="M372 805 C290 805 226 731 226 640 L226 430 L112 430 L112 806 L49 806 L49 4 L112 4 L112 367 L226 367 L226 162 C226 71 290 -4 372 -4 C452 -4 518 71 518 162 L518 640 C518 731 452 805 372 805 L372 805 Z M456 162 C456 107 418 59 372 59 C326 59 288 107 288 162 L288 640 C288 695 326 743 372 743 C418 743 456 695 456 640 L456 162 L456 162 Z " />
<glyph glyph-name="afii10049" unicode="&#x42f;" horiz-adv-x="425" d="M121 330 C80 300 53 252 53 197 L53 -1 L116 -1 L116 197 C116 253 163 300 220 300 L316 300 L316 1 L379 1 L379 300 L379 364 L379 745 L379 808 L316 808 L211 808 C125 808 55 734 55 643 L55 466 C55 409 82 360 121 330 L121 330 Z M211 364 C160 364 119 409 119 466 L119 643 C119 700 160 745 211 745 L316 745 L316 364 L211 364 Z " />
<glyph glyph-name="afii10065" unicode="&#x430;" horiz-adv-x="400" d="M227 583 L221 583 L221 583 C155 581 101 526 101 460 L164 460 C164 492 191 518 224 520 C257 518 283 490 283 454 L283 373 C259 394 229 406 197 406 C116 406 50 330 50 239 L50 168 C50 76 116 0 197 0 C229 0 259 12 283 31 L283 0 L346 0 L347 454 C347 523 293 580 227 583 L227 583 Z M281 168 C281 112 242 64 197 64 C152 64 114 112 114 168 L114 239 C114 295 152 342 197 342 C242 342 281 295 281 239 L281 168 Z " />
<glyph glyph-name="afii10066" unicode="&#x431;" horiz-adv-x="418" d="M203 517 C253 517 295 468 295 407 L358 407 C358 503 288 581 203 581 C118 581 48 503 48 407 L48 190 L48 176 L48 173 C48 77 118 0 203 0 C288 0 358 77 358 173 L358 173 C358 174 358 175 358 176 L358 190 C358 281 288 356 203 356 C168 356 137 344 112 323 L112 407 C112 468 152 517 203 517 L203 517 Z M203 293 C253 293 295 246 295 190 L295 176 C295 119 253 72 203 72 C152 72 112 119 112 176 L112 190 C112 246 152 293 203 293 L203 293 Z " />
<glyph glyph-name="afii10067" unicode="&#x432;" horiz-adv-x="352" d="M246 322 C274 349 292 392 292 439 C292 520 238 584 172 584 L52 584 L52 584 L50 584 L50 352 L50 340 L50 287 L50 277 L50 62 L50 0 L50 0 L114 0 L114 0 L181 0 C253 0 312 62 312 139 L312 200 C312 252 286 298 246 322 L246 322 Z M114 520 L172 520 C203 520 229 484 229 439 C229 394 200 352 170 352 L114 352 L114 520 Z M250 139 C250 97 218 62 181 62 L114 62 L114 277 L181 277 C218 277 250 242 250 200 L250 139 Z " />
<glyph glyph-name="afii10068" unicode="&#x433;" horiz-adv-x="365" d="M293 570 L49 570 L49 0 L112 0 L112 508 L293 508 L293 570 L293 570 Z " />
<glyph glyph-name="afii10069" unicode="&#x434;" horiz-adv-x="667" d="M558 632 L223 632 L223 601 C223 546 216 425 191 318 C175 251 140 139 80 139 L49 139 L49 0 L112 0 L112 76 L538 76 L538 0 L601 0 L601 139 L558 139 L558 632 L558 632 Z M252 304 C275 398 283 504 286 569 L496 569 L496 139 L187 139 C214 176 236 232 252 304 L252 304 Z " />
<glyph glyph-name="afii10070" unicode="&#x435;" horiz-adv-x="391" d="M192 583 C112 583 46 504 46 408 L46 175 C46 79 112 0 192 0 C274 0 340 79 340 175 L276 175 C276 115 238 65 192 65 C148 65 109 115 109 175 L109 290 L340 290 L340 408 C340 504 274 583 192 583 L192 583 Z M276 354 L109 354 L109 408 C109 468 148 518 192 518 C238 518 276 468 276 408 L276 354 Z " />
<glyph glyph-name="afii10072" unicode="&#x436;" horiz-adv-x="704" d="M649 583 L572 583 L380 347 L380 806 L317 806 L317 347 L125 583 L48 583 L200 385 L55 1 L127 1 L248 330 L317 242 L317 0 L380 0 L380 242 L449 330 L570 1 L642 1 L497 385 L649 583 L649 583 Z " />
<glyph glyph-name="afii10073" unicode="&#x437;" horiz-adv-x="403" d="M353 444 C353 535 287 610 206 610 L55 610 L55 546 L206 546 C252 546 290 500 290 444 C290 388 252 342 206 342 L91 342 L91 342 L91 280 L91 278 L206 278 C252 278 290 232 290 175 L290 166 C290 109 252 61 206 61 L55 61 L55 -1 L206 -1 C287 -1 353 73 353 166 L353 175 C353 230 329 280 292 311 C329 341 353 389 353 444 L353 444 Z " />
<glyph glyph-name="afii10074" unicode="&#x438;" horiz-adv-x="407" d="M114 584 L50 584 L50 0 L50 0 L97 0 L114 0 L114 0 L118 0 L295 432 L295 1 L359 1 L359 584 L354 584 L295 584 L287 584 L114 178 L114 584 Z " />
<glyph glyph-name="afii10075" unicode="&#x439;" horiz-adv-x="407" d="M114 178 L287 584 L295 584 L354 584 L359 584 L359 1 L295 1 L295 432 L118 0 L114 0 L114 0 L97 0 L50 0 L50 0 L50 584 L114 584 L114 178 Z M204 706 C160 706 122 752 122 809 L58 809 C58 716 124 642 204 642 C286 642 352 716 352 809 L288 809 C288 752 250 706 204 706 L204 706 Z " />
<glyph glyph-name="afii10076" unicode="&#x43a;" horiz-adv-x="414" d="M287 583 L126 328 L126 584 L62 584 L62 1 L126 1 L126 214 L182 299 L287 -2 L372 -2 L228 372 L361 583 L287 583 Z " />
<glyph glyph-name="afii10077" unicode="&#x43b;" horiz-adv-x="610" d="M192 575 L161 575 L161 187 C161 119 124 61 80 61 L49 61 L49 -1 L80 -1 C160 -1 224 83 224 187 L224 511 L468 511 L468 -2 L532 -2 L532 575 L224 575 L192 575 L192 575 Z " />
<glyph glyph-name="afii10078" unicode="&#x43c;" horiz-adv-x="472" d="M337 584 L330 584 L224 278 L118 584 L114 584 L52 584 L50 588 L50 584 L50 0 L114 0 L114 422 L191 173 L199 148 L250 148 L257 173 L337 428 L337 0 L400 0 L400 584 L396 584 L337 584 Z " />
<glyph glyph-name="afii10079" unicode="&#x43d;" horiz-adv-x="384" d="M263 305 L108 305 L108 593 L44 593 L44 0 L108 0 L108 242 L263 242 L263 0 L326 0 L326 593 L263 593 L263 305 Z " />
<glyph glyph-name="afii10080" unicode="&#x43e;" horiz-adv-x="391" d="M198 582 C118 582 52 508 52 416 L52 167 C52 76 118 1 198 1 C280 1 346 76 346 167 L346 416 C346 508 280 582 198 582 L198 582 Z M282 167 C282 112 244 64 198 64 C154 64 115 112 115 167 L115 416 C115 472 154 520 198 520 C244 520 282 472 282 416 L282 167 Z " />
<glyph glyph-name="afii10081" unicode="&#x43f;" horiz-adv-x="440" d="M383 584 L38 584 L41 0 L104 0 L104 522 L319 522 L319 0 L383 0 L383 584 Z " />
<glyph glyph-name="afii10082" unicode="&#x440;" horiz-adv-x="396" d="M197 582 C166 582 137 571 114 552 L114 583 L50 583 L50 415 L50 167 L50 -193 L114 -193 L114 30 C137 11 166 0 197 0 C278 0 344 85 344 178 L344 415 C344 508 278 582 197 582 L197 582 Z M281 167 C281 110 242 62 197 62 C152 62 114 110 114 167 L114 415 C114 472 152 518 197 518 C242 518 281 472 281 415 L281 167 Z " />
<glyph glyph-name="afii10083" unicode="&#x441;" horiz-adv-x="352" d="M197 520 C221 520 244 506 259 482 L312 518 C283 559 242 583 197 583 C116 583 50 506 50 410 L50 173 C50 78 116 1 197 1 C241 1 282 24 311 64 L259 100 C242 77 221 64 197 64 C152 64 114 114 114 173 L114 410 C114 470 152 520 197 520 L197 520 Z " />
<glyph glyph-name="afii10084" unicode="&#x442;" horiz-adv-x="347" d="M50 520 L148 520 L148 1 L210 1 L210 520 L306 520 L306 583 L50 583 L50 520 Z " />
<glyph glyph-name="afii10085" unicode="&#x443;" horiz-adv-x="398" d="M281 548 L281 168 C281 112 242 64 197 64 C152 64 114 112 114 168 L114 583 L50 583 L50 168 C50 76 116 1 197 1 C228 1 257 12 281 31 L281 1 C281 -58 242 -108 197 -108 C175 -108 160 -97 149 -88 L106 -134 C132 -158 164 -172 197 -172 C278 -172 344 -94 344 1 L344 168 L344 548 L344 583 L281 583 L281 548 Z " />
<glyph glyph-name="afii10086" unicode="&#x444;" horiz-adv-x="620" d="M430 560 C400 560 372 550 349 533 L349 821 L286 821 L286 526 C260 547 229 560 196 560 C115 560 49 486 49 394 L49 176 C49 84 115 10 196 10 C229 10 260 23 286 44 L286 -169 L349 -169 L349 37 C372 19 400 10 430 10 C510 10 576 84 576 176 L576 394 C576 486 510 560 430 560 L430 560 Z M280 176 C280 120 241 73 196 73 C150 73 112 120 112 176 L112 394 C112 450 150 497 196 497 C241 497 280 450 280 394 L280 176 L280 176 Z M512 176 C512 120 474 73 430 73 C391 73 359 104 349 148 L349 422 C359 466 391 497 430 497 C474 497 512 450 512 394 L512 176 L512 176 Z " />
<glyph glyph-name="afii10087" unicode="&#x445;" horiz-adv-x="466" d="M406 583 L336 583 L241 382 L146 583 L77 583 L206 308 L62 0 L132 0 L242 234 L353 0 L422 0 L277 308 L406 583 Z " />
<glyph glyph-name="afii10088" unicode="&#x446;" horiz-adv-x="551" d="M398 578 L335 578 L335 60 L319 60 L112 60 L112 578 L49 578 L49 -2 L319 -2 L398 -2 L434 -2 L434 -115 L497 -115 L497 60 L398 60 L398 578 L398 578 Z " />
<glyph glyph-name="afii10089" unicode="&#x447;" horiz-adv-x="442" d="M328 580 L328 311 C328 254 281 208 223 208 L215 208 C158 208 112 254 112 311 L112 618 L49 618 L49 311 C49 220 124 145 215 145 L223 145 C263 145 299 158 328 181 L328 -2 L390 -2 L390 311 L390 580 L390 605 L328 605 L328 580 L328 580 Z " />
<glyph glyph-name="afii10090" unicode="&#x448;" horiz-adv-x="620" d="M484 60 L330 60 L330 582 L266 582 L266 60 L112 60 L112 580 L49 580 L49 -2 L547 -2 L547 580 L484 580 L484 60 L484 60 Z " />
<glyph glyph-name="afii10091" unicode="&#x449;" horiz-adv-x="683" d="M547 580 L484 580 L484 60 L475 60 L330 60 L330 582 L266 582 L266 60 L112 60 L112 580 L49 580 L49 -2 L475 -2 L547 -2 L590 -2 L590 -115 L654 -115 L654 60 L547 60 L547 580 L547 580 Z " />
<glyph glyph-name="afii10092" unicode="&#x44a;" horiz-adv-x="520" d="M290 338 L215 338 L215 635 L49 635 L49 571 L152 571 L152 -2 L184 -2 L184 -4 L299 -4 C379 -4 445 71 445 162 L445 172 C445 263 377 338 290 338 L290 338 Z M383 162 C383 107 344 59 299 59 L215 59 L215 275 L290 275 C342 275 383 228 383 172 L383 162 L383 162 Z " />
<glyph glyph-name="afii10093" unicode="&#x44b;" horiz-adv-x="497" d="M185 408 L109 408 L109 590 L47 590 L47 0 L78 0 L109 0 L193 0 C274 0 340 74 340 167 L340 241 C340 334 270 408 185 408 L185 408 Z M277 167 C277 138 268 112 251 91 C235 73 215 64 193 64 L109 64 L109 344 L185 344 C235 344 277 299 277 241 L277 167 Z M374 0 L438 0 L438 592 L374 592 L374 0 Z " />
<glyph glyph-name="afii10094" unicode="&#x44c;" horiz-adv-x="402" d="M206 468 L130 468 L130 811 L67 809 L67 -5 L98 -5 L98 -7 L214 -7 C295 -7 361 68 361 160 L361 301 C361 394 292 468 206 468 L206 468 Z M298 160 C298 103 259 56 214 56 L130 56 L130 406 L206 406 C257 406 298 359 298 301 L298 160 L298 160 Z " />
<glyph glyph-name="afii10095" unicode="&#x44d;" horiz-adv-x="428" d="M299 466 L299 398 L299 338 L94 338 L94 276 L299 276 L299 228 L299 163 C299 108 260 60 215 60 C169 60 131 108 131 163 L67 163 C67 72 133 -2 215 -2 C295 -2 361 72 361 163 L361 228 L361 398 L361 466 C361 557 295 631 215 631 C133 631 67 557 67 466 L131 466 C131 521 169 569 215 569 C260 569 299 521 299 466 L299 466 Z " />
<glyph glyph-name="afii10096" unicode="&#x44e;" horiz-adv-x="546" d="M352 618 C275 618 212 544 212 451 L212 340 L112 340 L112 623 L49 623 L49 4 L112 4 L112 277 L212 277 L212 172 C212 79 275 5 352 5 C428 5 491 79 491 172 L491 451 C491 544 428 618 352 618 L352 618 Z M427 172 C427 115 392 68 352 68 C311 68 276 115 276 172 L276 451 C276 508 311 554 352 554 C392 554 427 508 427 451 L427 172 L427 172 Z " />
<glyph glyph-name="afii10097" unicode="&#x44f;" horiz-adv-x="368" d="M107 251 C73 221 52 173 52 120 L52 -1 L114 -1 L114 120 C114 176 151 223 196 223 L264 223 L264 1 L328 1 L328 521 L328 521 L328 584 L185 584 C113 584 53 521 53 444 L53 364 C53 318 74 277 107 251 L107 251 Z M185 287 C148 287 116 322 116 364 L116 444 C116 487 148 521 185 521 L264 521 L264 287 L185 287 Z " />
<glyph glyph-name="afii10071" unicode="&#x451;" horiz-adv-x="391" d="M209 583 C128 583 62 504 62 408 L62 175 C62 79 128 0 209 0 C290 0 356 79 356 175 L293 175 C293 115 254 65 209 65 C164 65 126 115 126 175 L126 290 L356 290 L356 408 C356 504 290 583 209 583 L209 583 Z M293 354 L126 354 L126 408 C126 468 164 518 209 518 C254 518 293 468 293 408 L293 354 Z M231 652 L289 652 L289 712 L231 712 L231 652 L231 652 Z M137 652 L196 652 L196 712 L137 712 L137 652 L137 652 Z " />
<glyph glyph-name="afii10099" unicode="&#x452;" horiz-adv-x="472" d="M281 568 C250 568 221 556 197 538 L197 656 L335 656 L335 720 L197 720 L197 793 L133 793 L133 720 L67 720 L67 656 L133 656 L133 401 L133 24 L133 -1 L197 -1 L197 24 L197 401 C197 457 235 504 281 504 C325 504 364 457 364 401 L364 40 C364 -18 322 -65 269 -65 L269 -127 C356 -127 427 -53 427 40 L427 401 C427 492 361 568 281 568 L281 568 Z " />
<glyph glyph-name="afii10100" unicode="&#x453;" horiz-adv-x="319" d="M304 583 L41 583 L41 581 L41 521 L41 0 L103 0 L103 521 L304 521 L304 583 L304 583 Z M138 670 L180 670 L206 759 L154 759 L138 670 L138 670 Z " />
<glyph glyph-name="afii10101" unicode="&#x454;" horiz-adv-x="386" d="M43 444 C43 389 67 341 104 311 C67 280 43 230 43 175 L43 166 C43 73 109 -1 190 -1 L341 -1 L341 61 L190 61 C144 61 106 109 106 166 L106 175 C106 232 144 278 190 278 L305 278 L305 280 L305 342 L305 342 L190 342 C144 342 106 388 106 444 C106 500 144 546 190 546 L341 546 L341 610 L190 610 C109 610 43 535 43 444 L43 444 Z " />
<glyph glyph-name="afii10102" unicode="&#x455;" horiz-adv-x="368" d="M218 320 C168 362 125 400 126 458 C126 492 158 518 199 518 C227 518 252 504 265 481 L320 512 C296 556 251 583 199 583 C124 583 64 528 62 460 C61 370 124 317 179 270 C229 227 274 190 272 128 C271 77 232 66 199 66 C169 66 143 83 132 108 L73 83 C95 34 144 1 199 1 C280 1 334 50 335 126 C337 220 275 272 218 320 L218 320 Z " />
<glyph glyph-name="afii10103" unicode="&#x456;" horiz-adv-x="190" d="M62 0 L126 0 L126 583 L62 583 L62 0 L62 0 Z M62 653 L126 653 L126 720 L62 720 L62 653 L62 653 Z " />
<glyph glyph-name="afii10104" unicode="&#x457;" horiz-adv-x="220" d="M62 0 L126 0 L126 583 L62 583 L62 0 L62 0 Z M106 701 L164 701 L164 761 L106 761 L106 701 L106 701 Z M12 701 L71 701 L71 761 L12 761 L12 701 L12 701 Z " />
<glyph glyph-name="afii10105" unicode="&#x458;" horiz-adv-x="227" d="M89 653 L152 653 L152 720 L89 720 L89 653 Z M89 2 C89 -58 50 -107 5 -107 C-17 -107 -34 -96 -43 -86 L-86 -140 C-60 -164 -28 -170 5 -170 C86 -170 152 -92 152 2 L152 583 L89 583 L89 2 Z " />
<glyph glyph-name="afii10106" unicode="&#x459;" horiz-adv-x="718" d="M497 468 L413 468 L413 629 L228 628 L228 116 C228 78 202 61 176 61 C164 61 152 66 145 73 C136 83 130 97 130 116 L67 116 C67 71 85 43 101 29 C120 8 148 -2 176 -2 C232 -2 290 40 290 116 L290 565 L349 565 L349 -2 L382 -2 L382 -4 L497 -4 C577 -4 643 71 643 163 L643 301 C643 394 577 468 497 468 L497 468 Z M581 163 C581 107 542 60 497 60 L413 60 L413 406 L497 406 C542 406 581 358 581 301 L581 163 L581 163 Z " />
<glyph glyph-name="afii10107" unicode="&#x45a;" horiz-adv-x="704" d="M496 468 L432 468 L432 617 L368 617 L368 468 L290 468 L290 618 L228 618 L228 116 C228 78 202 61 176 61 C164 61 152 66 145 73 C136 83 130 97 130 116 L67 116 C67 71 85 43 101 28 C120 8 148 -2 176 -2 C232 -2 290 40 290 116 L290 406 L368 406 L368 -2 L400 -2 L400 -4 L516 -4 C596 -4 662 71 662 163 L662 301 C662 394 588 468 496 468 L496 468 Z M599 163 C599 107 560 60 516 60 L432 60 L432 406 L496 406 C553 406 599 359 599 301 L599 163 L599 163 Z " />
<glyph glyph-name="afii10108" unicode="&#x45b;" horiz-adv-x="470" d="M269 568 C238 568 209 556 185 538 L185 668 L323 668 L323 732 L185 732 L185 805 L121 805 L121 732 L55 732 L55 668 L121 668 L121 401 L121 22 L121 -4 L185 -4 L185 22 L185 401 C185 457 223 504 269 504 C313 504 352 457 352 401 L352 0 L415 0 L415 401 C415 492 349 568 269 568 L269 568 Z " />
<glyph glyph-name="afii10109" unicode="&#x45c;" horiz-adv-x="414" d="M287 583 L126 328 L126 584 L62 584 L62 1 L126 1 L126 214 L182 299 L287 -2 L372 -2 L228 372 L361 583 L287 583 Z M172 684 L214 684 L240 773 L188 773 L172 684 L172 684 Z " />
<glyph glyph-name="afii10110" unicode="&#x45e;" horiz-adv-x="398" d="M281 548 L281 168 C281 112 242 64 197 64 C152 64 114 112 114 168 L114 583 L50 583 L50 168 C50 76 116 1 197 1 C228 1 257 12 281 31 L281 1 C281 -58 242 -108 197 -108 C175 -108 160 -97 149 -88 L106 -134 C132 -158 164 -172 197 -172 C278 -172 344 -94 344 1 L344 168 L344 548 L344 583 L281 583 L281 548 Z M198 706 C154 706 116 752 116 809 L52 809 C52 716 118 642 198 642 C280 642 346 716 346 809 L282 809 C282 752 244 706 198 706 L198 706 Z " />
<glyph glyph-name="afii10193" unicode="&#x45f;" horiz-adv-x="547" d="M416 236 L130 236 L130 613 L67 613 L67 173 L241 173 L241 -1 L305 -1 L305 173 L480 173 L480 620 L416 620 L416 236 L416 236 Z " />
<glyph glyph-name="afii10050" unicode="&#x490;" horiz-adv-x="488" d="M374 728 L67 728 L67 -2 L130 -2 L130 666 L437 666 L437 806 L374 806 L374 728 L374 728 Z " />
<glyph glyph-name="afii10098" unicode="&#x491;" horiz-adv-x="481" d="M374 606 L67 606 L67 -12 L130 -12 L130 542 L437 542 L437 683 L374 683 L374 606 L374 606 Z " />
<glyph glyph-name="endash" unicode="&#x2013;" horiz-adv-x="454" d="M32 371 L418 371 L418 433 L32 433 L32 371 Z " />
<glyph glyph-name="emdash" unicode="&#x2014;" horiz-adv-x="643" d="M36 376 L613 376 L613 439 L36 439 L36 376 Z " />
<glyph glyph-name="afii00208" unicode="&#x2015;" horiz-adv-x="643" d="M36 376 L613 376 L613 439 L36 439 L36 376 Z " />
<glyph glyph-name="quoteleft" unicode="&#x2018;" horiz-adv-x="154" d="M48 764 L48 709 L107 709 L107 764 L80 764 L80 764 C80 790 98 788 98 788 L98 809 C47 809 48 764 48 764 L48 764 Z " />
<glyph glyph-name="quoteright" unicode="&#x2019;" horiz-adv-x="148" d="M56 730 L56 709 C108 709 107 754 107 754 L107 809 L48 809 L48 754 L74 754 L74 754 C74 728 56 730 56 730 L56 730 Z " />
<glyph glyph-name="quotesinglbase" unicode="&#x201a;" horiz-adv-x="152" d="M107 55 L48 55 L48 0 L74 0 L74 0 C74 -26 56 -24 56 -24 L56 -44 C108 -44 107 0 107 0 L107 55 Z " />
<glyph glyph-name="quotedblleft" unicode="&#x201c;" horiz-adv-x="238" d="M126 764 L126 709 L185 709 L185 764 L158 764 L158 764 C158 790 175 788 175 788 L175 809 C125 809 126 764 126 764 L126 764 Z M48 764 L48 709 L107 709 L107 764 L80 764 L80 764 C80 790 98 788 98 788 L98 809 C47 809 48 764 48 764 L48 764 Z " />
<glyph glyph-name="quotedblright" unicode="&#x201d;" horiz-adv-x="223" d="M107 809 L48 809 L48 754 L74 754 L74 754 C74 728 56 730 56 730 L56 709 C108 709 107 754 107 754 L107 809 L107 809 Z M134 730 L134 709 C186 709 185 754 185 754 L185 809 L126 809 L126 754 L152 754 L152 754 C152 728 134 730 134 730 L134 730 Z " />
<glyph glyph-name="quotedblbase" unicode="&#x201e;" horiz-adv-x="229" d="M187 55 L128 55 L128 0 L154 0 L154 0 C154 -26 137 -24 137 -24 L137 -44 C187 -44 187 0 187 0 L187 55 L187 55 Z M107 55 L48 55 L48 0 L74 0 L74 0 C74 -26 56 -24 56 -24 L56 -44 C108 -44 107 0 107 0 L107 55 L107 55 Z " />
<glyph glyph-name="dagger" unicode="&#x2020;" horiz-adv-x="396" d="M235 805 L173 805 L173 617 L36 617 L36 554 L173 554 L173 0 L235 0 L235 554 L360 554 L360 617 L235 617 L235 805 L235 805 Z " />
<glyph glyph-name="daggerdbl" unicode="&#x2021;" horiz-adv-x="398" d="M235 805 L173 805 L173 617 L36 617 L36 554 L173 554 L173 409 L36 409 L36 346 L173 346 L173 0 L235 0 L235 346 L360 346 L360 409 L235 409 L235 554 L360 554 L360 617 L235 617 L235 805 L235 805 Z " />
<glyph glyph-name="bullet" unicode="&#x2022;" horiz-adv-x="169" d="M84 457 C65 457 49 442 49 422 C49 403 65 388 84 388 C103 388 119 403 119 422 C119 442 103 457 84 457 L84 457 Z " />
<glyph glyph-name="onedotenleader" unicode="&#x2024;" horiz-adv-x="142" d="M37 -1 L96 -1 L96 58 L37 58 L37 -1 L37 -1 Z " />
<glyph glyph-name="twodotenleader" unicode="&#x2025;" horiz-adv-x="283" d="M37 -1 L96 -1 L96 58 L37 58 L37 -1 L37 -1 Z M179 -1 L238 -1 L238 58 L179 58 L179 -1 L179 -1 Z " />
<glyph glyph-name="ellipsis" unicode="&#x2026;" horiz-adv-x="349" d="M48 -1 L107 -1 L107 59 L48 59 L48 -1 L48 -1 Z M145 -1 L204 -1 L204 59 L145 59 L145 -1 L145 -1 Z M241 -1 L300 -1 L300 59 L241 59 L241 -1 L241 -1 Z " />
<glyph glyph-name="perthousand" unicode="&#x2030;" horiz-adv-x="1171" d="M330 528 L330 624 C330 715 264 790 182 790 C102 790 36 715 36 624 L36 528 C36 437 102 361 182 361 C264 361 330 437 330 528 L330 528 Z M266 528 C266 472 228 425 182 425 C138 425 100 472 100 528 L100 624 C100 679 138 727 182 727 C228 727 266 679 266 624 L266 528 L266 528 Z M622 443 C541 443 475 368 475 276 L475 181 C475 89 541 14 622 14 C703 14 769 89 769 181 L769 276 C769 368 703 443 622 443 L622 443 Z M706 181 C706 125 667 77 622 77 C576 77 538 125 538 181 L538 276 C538 332 576 379 622 379 C667 379 706 332 706 276 L706 181 L706 181 Z M964 443 C883 443 817 368 817 276 L817 181 C817 89 883 14 964 14 C1045 14 1111 89 1111 181 L1111 276 C1111 368 1045 443 964 443 L964 443 Z M1048 181 C1048 125 1009 77 964 77 C918 77 880 125 880 181 L880 276 C880 332 918 379 964 379 C1009 379 1048 332 1048 276 L1048 181 L1048 181 Z M530 805 L246 0 L325 0 L610 805 L530 805 L530 805 Z " />
<glyph glyph-name="guilsinglleft" unicode="&#x2039;" horiz-adv-x="283" d="M180 600 L48 389 L180 173 L234 206 L122 389 L234 566 L180 600 Z " />
<glyph glyph-name="guilsinglright" unicode="&#x203a;" horiz-adv-x="290" d="M48 566 L160 389 L48 206 L102 173 L234 389 L102 600 L48 566 L48 566 Z " />
<glyph glyph-name="fraction" unicode="&#x2044;" horiz-adv-x="454" d="M48 0 L127 0 L410 805 L332 805 L48 0 Z " />
<glyph glyph-name="zerosuperior" unicode="&#x2070;" horiz-adv-x="349" d="M190 918 L156 918 C107 918 67 878 67 830 L67 570 C67 521 107 481 156 481 L190 481 C239 481 278 521 278 570 L278 830 C278 878 239 918 190 918 L190 918 Z M220 570 C220 553 206 540 190 540 L156 540 C139 540 126 553 126 570 L126 830 C126 846 139 859 156 859 L190 859 C206 859 220 846 220 830 L220 570 L220 570 Z " />
<glyph glyph-name="foursuperior" unicode="&#x2074;" horiz-adv-x="336" d="M253 918 L199 918 L67 622 L194 622 L194 480 L253 480 L253 622 L287 622 L287 680 L253 680 L253 918 L253 918 Z M194 680 L158 680 L194 763 L194 680 L194 680 Z " />
<glyph glyph-name="fivesuperior" unicode="&#x2075;" horiz-adv-x="323" d="M205 788 C186 802 163 808 136 804 L136 858 L230 858 L230 917 L77 917 L77 725 L116 739 C140 748 160 749 172 740 C190 727 199 691 199 640 C199 610 196 539 162 539 C151 539 142 547 134 562 C128 572 126 584 126 598 L67 598 C67 575 72 553 82 535 C98 500 128 480 162 480 C198 480 258 500 258 640 C258 714 240 763 205 788 L205 788 Z " />
<glyph glyph-name="sixsuperior" unicode="&#x2076;" horiz-adv-x="306" d="M155 859 C168 859 182 842 182 818 L241 818 C241 874 203 919 155 919 C107 919 67 874 67 818 L67 690 L67 582 L67 575 C67 554 74 535 85 521 C101 497 126 481 155 481 C182 481 208 497 223 521 C235 535 241 554 241 575 L241 690 C241 739 203 779 155 779 C144 779 134 776 126 774 L126 818 C126 842 140 859 155 859 L155 859 Z M155 720 C170 720 182 707 182 690 L182 582 C182 571 180 563 175 556 C170 548 163 545 155 545 C146 545 138 548 133 556 C128 563 126 571 126 582 L126 690 C126 707 139 720 155 720 L155 720 Z " />
<glyph glyph-name="sevensuperior" unicode="&#x2077;" horiz-adv-x="334" d="M67 917 L67 858 L180 858 C148 791 94 654 94 480 L152 480 C152 707 253 871 254 872 L283 917 L67 917 L67 917 Z " />
<glyph glyph-name="eightsuperior" unicode="&#x2078;" horiz-adv-x="334" d="M227 763 C240 780 248 800 248 824 C248 875 210 917 162 917 C114 917 76 875 76 824 C76 800 84 780 97 763 C78 746 67 724 67 697 L67 569 C67 520 107 480 156 480 L168 480 C217 480 257 520 257 569 L257 697 C257 724 245 746 227 763 L227 763 Z M162 858 C176 858 190 842 190 824 C190 805 176 791 162 791 C146 791 134 805 134 824 C134 842 146 858 162 858 L162 858 Z M198 569 C198 552 185 539 168 539 L156 539 C139 539 126 552 126 569 L126 697 C126 714 139 727 156 727 L168 727 C185 727 198 714 198 697 L198 569 L198 569 Z " />
<glyph glyph-name="ninesuperior" unicode="&#x2079;" horiz-adv-x="300" d="M155 917 C155 917 155 917 155 917 C155 917 155 917 155 917 L155 917 C107 917 67 877 67 829 L67 713 C67 664 107 624 155 624 C164 624 174 625 182 629 L182 581 C182 556 168 539 155 539 C140 539 126 556 126 581 L67 581 C67 526 107 480 155 480 C203 480 241 526 241 581 L241 713 L241 816 L241 829 C241 877 203 917 155 917 L155 917 Z M155 683 C139 683 126 696 126 713 L126 816 C126 841 140 858 155 858 C155 858 155 858 155 858 C168 858 182 841 182 816 L182 713 C182 696 170 683 155 683 L155 683 Z " />
<glyph glyph-name="parenleftsuperior" unicode="&#x207d;" horiz-adv-x="164" d="M87 864 C16 706 16 519 87 360 C104 360 112 360 129 360 C59 519 59 706 129 864 C112 864 104 864 87 864 L87 864 Z " />
<glyph glyph-name="parenrightsuperior" unicode="&#x207e;" horiz-adv-x="208" d="M58 864 C129 706 129 519 58 360 C75 360 84 360 102 360 C173 519 173 706 102 864 C84 864 75 864 58 864 L58 864 Z " />
<glyph glyph-name="nsuperior" unicode="&#x207f;" horiz-adv-x="338" d="M176 812 C152 812 130 804 112 789 L112 812 L62 812 L62 683 L62 360 L112 360 L112 683 C112 727 141 764 176 764 C211 764 241 727 241 683 L241 360 L290 360 L290 683 C290 755 239 812 176 812 L176 812 Z " />
<glyph glyph-name="zeroinferior" unicode="&#x2080;" horiz-adv-x="349" d="M190 295 L156 295 C107 295 67 256 67 208 L67 -53 C67 -102 107 -142 156 -142 L190 -142 C239 -142 278 -102 278 -53 L278 208 C278 256 239 295 190 295 L190 295 Z M220 -53 C220 -70 206 -83 190 -83 L156 -83 C139 -83 126 -70 126 -53 L126 208 C126 223 139 236 156 236 L190 236 C206 236 220 223 220 208 L220 -53 L220 -53 Z " />
<glyph glyph-name="oneinferior" unicode="&#x2081;" horiz-adv-x="281" d="M193 296 L113 296 L67 244 L112 205 L133 229 L133 -142 L193 -142 L193 295 L192 295 L193 296 L193 296 Z " />
<glyph glyph-name="twoinferior" unicode="&#x2082;" horiz-adv-x="317" d="M258 185 C257 247 215 295 162 295 C109 295 67 245 67 179 L126 179 C126 212 145 236 162 236 C182 236 198 214 198 185 C199 128 172 96 140 56 C106 14 66 -34 67 -113 L67 -142 L242 -142 L242 -83 L128 -83 C136 -42 158 -13 186 19 C220 61 258 108 258 185 L258 185 Z " />
<glyph glyph-name="threeinferior" unicode="&#x2083;" horiz-adv-x="325" d="M83 295 L83 236 L155 236 L72 121 L130 121 C190 121 198 54 198 13 C198 -49 178 -83 162 -83 C145 -83 126 -59 126 -25 L67 -25 C67 -90 109 -142 162 -142 C210 -142 258 -94 258 13 C258 103 222 151 179 169 L269 295 L83 295 L83 295 Z " />
<glyph glyph-name="fourinferior" unicode="&#x2084;" horiz-adv-x="336" d="M253 296 L199 296 L67 0 L194 0 L194 -142 L253 -142 L253 0 L287 0 L287 59 L253 59 L253 296 L253 296 Z M194 59 L158 59 L194 142 L194 59 L194 59 Z " />
<glyph glyph-name="fiveinferior" unicode="&#x2085;" horiz-adv-x="323" d="M205 167 C186 180 163 186 136 182 L136 236 L230 236 L230 295 L77 295 L77 103 L116 118 C140 126 160 127 172 119 C190 106 199 70 199 18 C199 -12 196 -83 162 -83 C151 -83 142 -74 134 -60 C128 -49 126 -37 126 -24 L67 -24 C67 -47 72 -68 82 -86 C98 -121 128 -142 162 -142 C198 -142 258 -121 258 18 C258 92 240 142 205 167 L205 167 Z " />
<glyph glyph-name="sixinferior" unicode="&#x2086;" horiz-adv-x="306" d="M155 236 C168 236 182 220 182 196 L241 196 C241 251 203 296 155 296 C107 296 67 251 67 196 L67 67 L67 -41 L67 -48 C67 -68 74 -88 85 -102 C101 -126 126 -142 155 -142 C182 -142 208 -126 223 -102 C235 -88 241 -68 241 -48 L241 67 C241 116 203 156 155 156 C144 156 134 154 126 151 L126 196 C126 220 140 236 155 236 L155 236 Z M155 97 C170 97 182 84 182 67 L182 -41 C182 -52 180 -60 175 -67 C170 -74 163 -78 155 -78 C146 -78 138 -74 133 -67 C128 -60 126 -52 126 -41 L126 67 C126 84 139 97 155 97 L155 97 Z " />
<glyph glyph-name="seveninferior" unicode="&#x2087;" horiz-adv-x="334" d="M67 295 L67 236 L180 236 C148 169 94 32 94 -142 L152 -142 C152 85 253 250 254 251 L283 295 L67 295 L67 295 Z " />
<glyph glyph-name="eightinferior" unicode="&#x2088;" horiz-adv-x="334" d="M227 142 C240 158 248 179 248 203 C248 253 210 295 162 295 C114 295 76 253 76 203 C76 179 84 158 97 142 C78 125 67 102 67 76 L67 -53 C67 -102 107 -142 156 -142 L168 -142 C217 -142 257 -102 257 -53 L257 76 C257 102 245 125 227 142 L227 142 Z M162 236 C176 236 190 221 190 203 C190 184 176 169 162 169 C146 169 134 184 134 203 C134 221 146 236 162 236 L162 236 Z M198 -53 C198 -70 185 -83 168 -83 L156 -83 C139 -83 126 -70 126 -53 L126 76 C126 92 139 106 156 106 L168 106 C185 106 198 92 198 76 L198 -53 L198 -53 Z " />
<glyph glyph-name="nineinferior" unicode="&#x2089;" horiz-adv-x="300" d="M155 295 C155 295 155 295 155 295 C155 295 155 295 155 295 L155 295 C107 295 67 256 67 208 L67 91 C67 42 107 2 155 2 C164 2 174 4 182 7 L182 -41 C182 -66 168 -83 155 -83 C140 -83 126 -66 126 -41 L67 -41 C67 -96 107 -142 155 -142 C203 -142 241 -96 241 -41 L241 91 L241 194 L241 208 C241 256 203 295 155 295 L155 295 Z M155 61 C139 61 126 74 126 91 L126 194 C126 220 140 236 155 236 C155 236 155 236 155 236 C168 236 182 220 182 194 L182 91 C182 74 170 61 155 61 L155 61 Z " />
<glyph glyph-name="parenleftinferior" unicode="&#x208d;" horiz-adv-x="184" d="M97 360 C39 229 39 74 97 -56 C111 -56 119 -56 133 -56 C75 74 75 229 133 360 C119 360 111 360 97 360 L97 360 Z " />
<glyph glyph-name="parenrightinferior" unicode="&#x208e;" horiz-adv-x="172" d="M58 360 C115 229 115 74 58 -56 C72 -56 79 -56 93 -56 C151 74 151 229 93 360 C79 360 72 360 58 360 L58 360 Z " />
<glyph glyph-name="colonmonetary" unicode="&#x20a1;" horiz-adv-x="445" d="M20 -60 L76 -60 L299 853 L245 853 L20 -60 L20 -60 Z M128 -60 L184 -60 L407 853 L353 853 L128 -60 Z M215 749 L223 749 C251 749 276 738 296 718 C308 704 318 688 323 670 L384 686 C376 715 361 740 341 762 C310 794 268 811 223 811 L215 811 C122 811 48 734 48 640 L48 173 C48 78 122 0 215 0 L223 0 C294 0 356 47 380 114 L320 136 C306 92 266 64 223 64 L215 64 C157 64 112 113 112 173 L112 640 C112 700 157 749 215 749 L215 749 Z " />
<glyph glyph-name="Euro" unicode="&#x20ac;" horiz-adv-x="484" d="M259 713 L269 713 C326 713 372 666 372 608 L436 608 C436 701 361 775 269 775 L259 775 C168 775 94 701 94 608 L94 503 L48 503 L48 440 L94 440 L94 337 L48 337 L48 275 L94 275 L94 166 C94 74 168 0 259 0 L269 0 C361 0 436 74 436 166 L372 166 C372 109 326 62 269 62 L259 62 C203 62 156 109 156 166 L156 275 L384 275 L384 337 L156 337 L156 440 L384 440 L384 503 L156 503 L156 608 C156 666 203 713 259 713 L259 713 Z " />
<glyph glyph-name="afii61352" unicode="&#x2116;" horiz-adv-x="821" d="M360 809 L360 168 L134 809 L122 809 L60 809 L60 0 L124 0 L124 649 L352 0 L371 0 L373 1 L414 14 L371 0 L422 0 L422 809 L360 809 Z M629 786 C548 786 482 712 482 620 L482 371 C482 280 548 205 629 205 C710 205 776 280 776 371 L776 620 C776 712 710 786 629 786 L629 786 Z M713 371 C713 316 674 268 629 268 C584 268 546 316 546 371 L546 620 C546 676 584 724 629 724 C674 724 713 676 713 620 L713 371 Z M476 95 L803 95 L803 157 L476 157 L476 95 Z " />
<glyph glyph-name="trademark" unicode="&#x2122;" horiz-adv-x="383" d="M31 773 L79 773 L79 498 L115 498 L115 773 L160 773 L160 809 L31 809 L31 773 L31 773 Z M214 809 L214 809 L179 809 L179 809 L179 809 L179 497 L215 497 L215 688 L248 586 L277 586 L311 690 L311 497 L347 497 L347 809 L347 809 L311 809 L262 659 L214 809 Z " />
<glyph glyph-name="onethird" unicode="&#x2153;" horiz-adv-x="568" d="M157 810 L77 810 L31 757 L76 719 L97 743 L97 372 L157 372 L157 809 L156 809 L157 810 Z M353 437 L353 378 L425 378 L342 263 L400 263 C460 263 468 196 468 155 C468 92 448 59 432 59 C415 59 396 83 396 116 L337 116 C337 52 379 0 432 0 C480 0 528 48 528 155 C528 245 492 293 449 311 L539 437 L353 437 Z M73 0 L152 0 L435 805 L357 805 L73 0 Z " />
<glyph glyph-name="twothirds" unicode="&#x2154;" horiz-adv-x="625" d="M389 437 L389 378 L461 378 L378 263 L436 263 C496 263 504 196 504 155 C504 92 484 59 468 59 C451 59 432 83 432 116 L373 116 C373 52 415 0 468 0 C516 0 564 48 564 155 C564 245 528 293 485 311 L575 437 L389 437 Z M222 697 C221 760 179 808 126 808 C73 808 31 757 31 691 L90 691 C90 725 109 749 126 749 C146 749 162 726 162 697 C163 641 136 608 104 569 C70 527 30 479 31 400 L31 371 L206 371 L206 430 L92 430 C100 470 122 499 150 532 C184 574 222 620 222 697 L222 697 Z M108 0 L187 0 L470 805 L392 805 L108 0 Z " />
<glyph glyph-name="oneeighth" unicode="&#x215b;" horiz-adv-x="524" d="M455 283 C468 300 476 320 476 344 C476 395 438 437 390 437 C342 437 304 395 304 344 C304 320 312 300 325 283 C306 266 295 244 295 217 L295 89 C295 40 335 0 384 0 L396 0 C445 0 485 40 485 89 L485 217 C485 244 473 266 455 283 L455 283 Z M390 378 C404 378 418 362 418 344 C418 325 404 311 390 311 C374 311 362 325 362 344 C362 362 374 378 390 378 L390 378 Z M426 89 C426 72 413 59 396 59 L384 59 C367 59 354 72 354 89 L354 217 C354 234 367 247 384 247 L396 247 C413 247 426 234 426 217 L426 89 Z M157 810 L77 810 L31 757 L76 719 L97 743 L97 372 L157 372 L157 809 L156 809 L157 810 Z M60 0 L139 0 L422 805 L344 805 L60 0 Z " />
<glyph glyph-name="threeeighths" unicode="&#x215c;" horiz-adv-x="524" d="M479 283 C492 300 500 320 500 344 C500 395 462 437 414 437 C366 437 328 395 328 344 C328 320 336 300 349 283 C330 266 319 244 319 217 L319 89 C319 40 359 0 408 0 L420 0 C469 0 509 40 509 89 L509 217 C509 244 497 266 479 283 L479 283 Z M414 378 C428 378 442 362 442 344 C442 325 428 311 414 311 C398 311 386 325 386 344 C386 362 398 378 414 378 L414 378 Z M450 89 C450 72 437 59 420 59 L408 59 C391 59 378 72 378 89 L378 217 C378 234 391 247 408 247 L420 247 C437 247 450 234 450 217 L450 89 Z M34 810 L34 751 L106 751 L23 636 L80 636 C140 636 149 569 149 528 C149 466 128 432 113 432 C96 432 77 456 77 490 L18 490 C18 425 60 373 113 373 C161 373 209 421 209 528 C209 618 173 666 130 684 L220 810 L34 810 Z M78 0 L157 0 L440 805 L362 805 L78 0 Z " />
<glyph glyph-name="fiveeighths" unicode="&#x215d;" horiz-adv-x="617" d="M539 283 C552 300 560 320 560 344 C560 395 522 437 474 437 C426 437 388 395 388 344 C388 320 396 300 409 283 C390 266 379 244 379 217 L379 89 C379 40 419 0 468 0 L480 0 C529 0 569 40 569 89 L569 217 C569 244 557 266 539 283 L539 283 Z M474 378 C488 378 502 362 502 344 C502 325 488 311 474 311 C458 311 446 325 446 344 C446 362 458 378 474 378 L474 378 Z M510 89 C510 72 497 59 480 59 L468 59 C451 59 438 72 438 89 L438 217 C438 234 451 247 468 247 L480 247 C497 247 510 234 510 217 L510 89 Z M205 682 C186 695 163 701 136 697 L136 751 L230 751 L230 810 L77 810 L77 618 L116 632 C140 641 160 642 172 634 C190 620 199 584 199 533 C199 503 196 432 162 432 C151 432 142 440 134 455 C128 466 126 478 126 491 L67 491 C67 468 72 446 82 428 C98 394 128 373 162 373 C198 373 258 394 258 533 C258 607 240 656 205 682 L205 682 Z M136 0 L215 0 L498 805 L420 805 L136 0 Z " />
<glyph glyph-name="seveneighths" unicode="&#x215e;" horiz-adv-x="541" d="M455 283 C468 300 476 320 476 344 C476 395 438 437 390 437 C342 437 304 395 304 344 C304 320 312 300 325 283 C306 266 295 244 295 217 L295 89 C295 40 335 0 384 0 L396 0 C445 0 485 40 485 89 L485 217 C485 244 473 266 455 283 L455 283 Z M390 378 C404 378 418 362 418 344 C418 325 404 311 390 311 C374 311 362 325 362 344 C362 362 374 378 390 378 L390 378 Z M426 89 C426 72 413 59 396 59 L384 59 C367 59 354 72 354 89 L354 217 C354 234 367 247 384 247 L396 247 C413 247 426 234 426 217 L426 89 Z M42 810 L42 751 L155 751 C122 684 68 547 68 373 L127 373 C127 600 228 764 229 766 L258 810 L42 810 Z M48 0 L127 0 L410 805 L332 805 L48 0 Z " />
<glyph glyph-name="partialdiff" unicode="&#x2202;" horiz-adv-x="502" d="M311 778 C226 778 143 702 126 610 L188 610 C198 667 248 714 299 714 C349 714 383 667 373 610 L350 484 C328 504 299 516 264 516 C179 516 96 442 80 349 L49 175 C49 173 48 169 48 167 L48 167 C31 74 88 0 173 0 C258 0 341 74 358 167 L359 175 L390 349 L436 610 C452 702 396 778 311 778 L311 778 Z M143 349 C152 407 203 454 253 454 C304 454 337 407 328 349 L296 175 C287 118 236 72 186 72 C136 72 102 118 112 175 L143 349 L143 349 Z " />
<glyph glyph-name="product" unicode="&#x220f;" horiz-adv-x="490" d="M107 806 L76 806 L43 806 L43 0 L107 0 L107 744 L371 744 L371 -1 L434 -1 L434 806 L107 806 L107 806 Z " />
<glyph glyph-name="summation" unicode="&#x2211;" horiz-adv-x="463" d="M222 328 L48 0 L415 0 L415 62 L152 62 L294 328 L152 593 L415 593 L415 655 L48 655 L222 328 L222 328 Z " />
<glyph glyph-name="minus" unicode="&#x2212;" horiz-adv-x="563" d="M31 360 L506 360 L506 455 L31 455 L31 360 L31 360 Z " />
<glyph glyph-name="radical" unicode="&#x221a;" horiz-adv-x="686" d="M337 79 L205 386 L36 295 L66 239 L174 299 L346 -100 L636 787 L576 806 L337 79 L337 79 Z " />
<glyph glyph-name="infinity" unicode="&#x221e;" horiz-adv-x="707" d="M547 510 C527 510 505 505 482 496 L348 439 C305 457 264 475 234 488 L216 496 C194 505 173 510 151 510 C91 510 48 467 48 404 C48 373 59 347 78 328 C96 310 122 299 152 299 C173 299 194 304 216 313 L348 370 C390 353 427 336 457 324 L482 313 C504 304 526 299 546 299 C546 299 546 299 546 299 C576 299 602 310 622 328 C641 347 650 373 650 404 C650 467 608 510 547 510 L547 510 Z M191 371 C178 366 164 362 152 362 C143 362 131 364 122 373 C113 382 112 395 112 404 C112 439 133 446 151 446 C163 446 178 444 191 438 L209 430 C226 422 246 414 269 404 L191 371 L191 371 Z M577 373 C568 364 556 362 546 362 C546 362 546 362 546 362 C534 362 521 365 508 371 L481 382 C466 389 449 396 428 404 L508 438 C522 444 535 448 547 448 C565 448 588 439 588 404 C588 395 586 382 577 373 L577 373 Z " />
<glyph glyph-name="integral" unicode="&#x222b;" horiz-adv-x="377" d="M110 618 L110 167 C110 102 74 62 48 62 L48 0 C118 0 174 74 174 167 L174 618 C174 674 212 722 258 722 C275 722 292 716 306 703 L349 750 C323 773 290 786 258 786 C176 786 110 710 110 618 L110 618 Z " />
<glyph glyph-name="approxequal" unicode="&#x2248;" horiz-adv-x="510" d="M239 474 C217 461 199 449 179 449 C179 449 179 449 179 449 C155 449 127 466 92 500 L48 456 C101 403 144 385 180 385 C217 385 247 404 272 420 C317 449 347 467 421 392 L466 437 C355 547 288 505 239 474 L239 474 Z M239 306 C217 293 199 281 179 281 C179 281 179 281 179 281 C155 281 127 298 92 332 L48 288 C101 235 144 218 180 218 C217 218 247 236 272 253 C317 281 347 299 421 224 L466 270 C355 379 288 337 239 306 L239 306 Z " />
<glyph glyph-name="notequal" unicode="&#x2260;" horiz-adv-x="380" d="M302 538 L245 564 L199 464 L36 464 L36 402 L170 402 L131 313 L36 313 L36 250 L102 250 L74 192 L132 166 L170 250 L341 250 L341 313 L199 313 L240 402 L341 402 L341 464 L269 464 L302 538 L302 538 Z " />
<glyph glyph-name="lessequal" unicode="&#x2264;" horiz-adv-x="390" d="M283 270 L172 454 L283 631 L230 665 L98 454 L229 238 L283 270 Z M358 184 L34 184 L34 121 L358 121 L358 184 Z " />
<glyph glyph-name="greaterequal" unicode="&#x2265;" horiz-adv-x="391" d="M162 238 L293 454 L161 665 L108 631 L220 454 L108 270 L162 238 L162 238 Z M34 121 L358 121 L358 184 L34 184 L34 121 L34 121 Z " />
<glyph glyph-name="lozenge" unicode="&#x25ca;" horiz-adv-x="414" d="M224 701 L185 701 L48 421 L185 137 L224 137 L361 415 L233 683 L224 701 L224 701 Z M205 240 L118 421 L204 598 L292 415 L205 240 L205 240 Z " />
<glyph glyph-name="ff" unicode="&#xfb00;" horiz-adv-x="601" d="M365 774 C340 798 307 811 274 811 C193 811 127 734 127 638 L127 583 L50 583 L50 521 L127 521 L127 0 L190 0 L190 521 L270 521 L270 583 L190 583 L190 638 C190 698 228 749 274 749 C295 749 312 737 322 728 L365 774 L365 774 Z M580 774 C555 798 522 811 489 811 C408 811 342 734 342 638 L342 583 L265 583 L265 521 L342 521 L342 0 L405 0 L405 521 L485 521 L485 583 L405 583 L405 638 C405 698 443 749 489 749 C510 749 527 737 537 728 L580 774 L580 774 Z " />
<glyph glyph-name="fi" unicode="&#xfb01;" horiz-adv-x="527" d="M356 0 L420 0 L420 583 L356 583 L356 0 L356 0 Z M364 775 C338 799 306 812 272 812 C192 812 126 734 126 640 L126 583 L49 583 L49 521 L126 521 L126 1 L188 1 L188 521 L269 521 L269 583 L188 583 L188 640 C188 698 227 749 272 749 C294 749 311 738 320 728 C343 708 356 674 356 640 L420 640 C420 692 400 742 364 775 L364 775 Z " />
<glyph glyph-name="fl" unicode="&#xfb02;" horiz-adv-x="538" d="M374 774 C349 798 305 811 271 811 C191 811 125 734 125 638 L125 583 L48 583 L48 521 L125 521 L125 0 L187 0 L187 521 L268 521 L268 583 L187 583 L187 638 C187 698 226 749 271 749 C293 749 322 737 331 728 C354 707 367 673 367 638 L367 0 L431 0 L431 638 C431 691 410 740 374 774 L374 774 Z " />
<glyph glyph-name="ffi" unicode="&#xfb03;" horiz-adv-x="689" d="M365 774 C340 798 307 811 274 811 C193 811 127 734 127 638 L127 583 L50 583 L50 521 L127 521 L127 0 L190 0 L190 521 L270 521 L270 583 L190 583 L190 638 C190 698 228 749 274 749 C295 749 312 737 322 728 L365 774 L365 774 Z M576 0 L640 0 L640 583 L576 583 L576 0 L576 0 Z M584 775 C558 799 526 812 492 812 C412 812 346 734 346 640 L346 583 L269 583 L269 521 L346 521 L346 1 L408 1 L408 521 L489 521 L489 583 L408 583 L408 640 C408 698 447 749 492 749 C514 749 531 738 540 728 C563 708 576 674 576 640 L640 640 C640 692 620 742 584 775 L584 775 Z " />
<glyph glyph-name="ffl" unicode="&#xfb04;" horiz-adv-x="680" d="M365 774 C340 798 307 811 274 811 C193 811 127 734 127 638 L127 583 L50 583 L50 521 L127 521 L127 0 L190 0 L190 521 L270 521 L270 583 L190 583 L190 638 C190 698 228 749 274 749 C295 749 312 737 322 728 L365 774 L365 774 Z M591 774 C566 798 522 811 488 811 C408 811 342 734 342 638 L342 583 L265 583 L265 521 L342 521 L342 0 L404 0 L404 521 L485 521 L485 583 L404 583 L404 638 C404 698 443 749 488 749 C510 749 539 737 548 728 C571 707 584 673 584 638 L584 0 L648 0 L648 638 C648 691 627 740 591 774 L591 774 Z " />
</font>
</svg>
